Самые чудесные места / The Greatest Places (Мэл Вульф) [1998, США, документальный, короткометражка, BDRip HD (720p HD), SD] AVO, Original

Статистика раздачи
Размер:  2.36 GB   |   Зарегистрирован:  7 лет 2 месяца   |   .torrent скачан:  2,474 раза

Полный источник: был вчера

Автор
Сообщение

yv_apple

Moderator

Стаж: 8 лет 5 месяцев

Сообщений: 5559

flag

yv_apple · 01-Сен-11 12:58 (7 лет 2 месяца назад, ред. 20-Мар-15 22:41)

 

Самые чудесные места / The Greatest Places
7.128 / 10

Год выпуска: 1998
Страна: США
Жанр: документальный, короткометражка
Продолжительность: 40 мин.
Перевод: Одноголосый закадровый авторский перевод
Оригинальная аудиодорожка: Есть
Субтитры: Нет
Режиссёр: Мэл Вульф
Сценарий: Памела Стэйси
Продюсер: Майкл Кук, Michael Boeckmann, Майк Дэй
Оператор: Чак Дэвис
Композитор: Крис Томас
Монтаж: Эрик Кристиансен
В ролях: Эйвери Брукс
Описание: Камера покажет Вам гораздо больше, чем может увидеть турист. Вы удивитесь роскоши дворцов, соприкоснетесь с древними тайнами, восхититесь творениями природы. Нет на земле такого места, куда нельзя добраться на Вашем ковре-самолете. Вас ждут фантастические виды, неожиданные ракурсы, незабываемое путешествие и подлинные Чудеса - величайшие создания цивилизации. Когда страсть зодчего соединяется с тягой к прекрасному, рождается чудо - удивительное сооружение, над которым не властно время.
Качество исходника: Blu-Ray 1080p
Качество: BDRip
Тип: 480p 720p
Контейнер: m4v
Видео: 640x480 анаморф 853x480 at 23.976 fps, MPEG-4 AVC, ~1500 kbps avg
Видео: 1280х720 at 23.976 fps, MPEG-4 AVC, ~5000 kbps avg
Аудио#1: Russian: 48 kHz, ААС, 2/0 (L,R), ~160.00 kbps avg |Одноголосый закадровый, студия "Омикрон"|
Аудио#2: English: 48 kHz, ААС, 2/0 (L,R), ~160.00 kbps avg
Аудио#3: Russian: 48 kHz, AC3, 3/2 (L,C,R,l,r) + LFE ch, ~640.00 kbps avg |Одноголосый закадровый, студия "Омикрон"|
Аудио#4: English: 48 kHz, AC3, 3/2 (L,C,R,l,r) + LFE ch, ~640.00 kbps avg
iTunes Meta Tags for country us
Код:
Name: The Greatest Places (IMAX)
Artist: Mal Wolfe
Genre: Documentary
Release Date: 1998-01-01T08:00:00Z
Description: Камера покажет Вам гораздо больше, чем может увидеть турист. Вы удивитесь роскоши дворцов, соприкоснетесь с древними тайнами, восхититесь творениями природы.
Long Description: Камера покажет Вам гораздо больше, чем может увидеть турист. Вы удивитесь роскоши дворцов, соприкоснетесь с древними тайнами, восхититесь творениями природы. Нет на земле такого места, куда нельзя добраться на Вашем ковре-самолете. Вас ждут фантастические виды, неожиданные ракурсы, незабываемое путешествие и подлинные Чудеса - величайшие создания цивилизации. Когда страсть зодчего соединяется с тягой к прекрасному, рождается чудо - удивительное сооружение, над которым не властно время.
Rating: NR
Studio: Inception Media Group
Cast: Эйвери Брукс
Director: Мэл Вульф
Producers: Майкл Кук, Michael Boeckmann, Майк Дэй
Screenwriters: Памела Стэйси
contentID: 436992603
XID: Apple:vendor_id:1998-109580
Sort Name: Greatest Places (IMAX)
MediaInfo 480p Release
Код:
General
Complete name : The Greatest Places (IMAX).m4v
Format : MPEG-4
Codec ID : M4V
File size : 524 MiB
Duration : 39mn 59s
Overall bit rate mode : Variable
Overall bit rate : 1 833 Kbps
Movie name : The Greatest Places (IMAX)
Performer : Mal Wolfe
Genre : Documentary
ContentType : Short Film
Description : Камера покажет Вам гораздо больше, чем может увидеть турист. Вы удивитесь роскоши дворцов, соприкоснетесь с древними тайнами, восхититесь творениями природы.
Recorded date : UTC 1998-01-01 08:00:00
Encoded date : UTC 2013-02-10 12:00:42
Tagged date : UTC 2015-03-20 19:31:59
Cover : Yes
Rating : None
Title/Sort : Greatest Places
LongDescription : Камера покажет Вам гораздо больше, чем может увидеть турист. Вы удивитесь роскоши дворцов, соприкоснетесь с древними тайнами, восхититесь творениями природы. Нет на земле такого места, куда нельзя добраться на Вашем ковре-самолете. Вас ждут фантастические виды, неожиданные ракурсы, незабываемое путешествие и подлинные Чудеса - величайшие создания цивилизации. Когда страсть зодчего соединяется с тягой к прекрасному, рождается чудо - удивительное сооружение, над которым не властно время.
AppleStoreCatalogID : 436992603
Vendor : Apple:vendor_id:1998-109580
ContentRating : mpaa|NR|000|
iTunMOVI : <?xml version="1.0" encoding="UTF-8"?> / <!DOCTYPE plist PUBLIC "-//Apple//DTD PLIST 1.0//EN" "http://www.apple.com/DTDs/PropertyList-1.0.dtd"> / <plist version="1.0"> / <dict> /  <key>cast</key> /  <array> /   <dict> /    <key>name</key> /    <string>Эйвери Брукс</string> /   </dict> /  </array> /  <key>directors</key> /  <array> /   <dict> /    <key>name</key> /    <string>Мэл Вульф</string> /   </dict> /  </array> /  <key>producers</key> /  <array> /   <dict> /    <key>name</key> /    <string>Майкл Кук</string> /   </dict> /   <dict> /    <key>name</key> /    <string>Michael Boeckmann</string> /   </dict> /   <dict> /    <key>name</key> /    <string>Майк Дэй</string> /   </dict> /  </array> /  <key>screenwriters</key> /  <array> /   <dict> /    <key>name</key> /    <string>Памела Стэйси</string> /   </dict> /  </array> /  <key>studio</key> /  <string>Inception Media Group</string> / </dict> / </plist>
Video
ID : 1
Format : AVC
Format/Info : Advanced Video Codec
Format profile : Baseline@L3.0
Format settings, CABAC : No
Format settings, ReFrames : 2 frames
Codec ID : avc1
Codec ID/Info : Advanced Video Coding
Duration : 39mn 59s
Bit rate : 1 500 Kbps
Width : 640 pixels
Height : 480 pixels
Display aspect ratio : 16:9
Original display aspect ratio : 16:9
Frame rate mode : Variable
Frame rate : 23.976 fps
Minimum frame rate : 23.974 fps
Maximum frame rate : 23.981 fps
Color space : YUV
Chroma subsampling : 4:2:0
Bit depth : 8 bits
Scan type : Progressive
Bits/(Pixel*Frame) : 0.204
Stream size : 428 MiB (82%)
Writing library : x264 core 115
Encoding settings : cabac=0 / ref=2 / deblock=1:0:0 / analyse=0x1:0x111 / me=umh / subme=6 / psy=1 / psy_rd=1.00:0.00 / mixed_ref=1 / me_range=16 / chroma_me=1 / trellis=0 / 8x8dct=0 / cqm=0 / deadzone=21,11 / fast_pskip=1 / chroma_qp_offset=-2 / threads=6 / sliced_threads=0 / nr=0 / decimate=1 / interlaced=0 / bluray_compat=0 / constrained_intra=0 / bframes=0 / weightp=0 / keyint=240 / keyint_min=24 / scenecut=40 / intra_refresh=0 / rc_lookahead=40 / rc=2pass / mbtree=1 / bitrate=1500 / ratetol=1.0 / qcomp=0.60 / qpmin=3 / qpmax=69 / qpstep=4 / cplxblur=20.0 / qblur=0.5 / vbv_maxrate=5000 / vbv_bufsize=5000 / nal_hrd=none / ip_ratio=1.40 / aq=1:1.00
Language : English
Encoded date : UTC 2013-02-10 12:00:42
Tagged date : UTC 2013-02-10 12:01:40
Color primaries : BT.709
Transfer characteristics : BT.709
Matrix coefficients : BT.709
Audio #1
ID : 2
Format : AAC
Format/Info : Advanced Audio Codec
Format profile : LC
Codec ID : 40
Duration : 39mn 59s
Bit rate mode : Variable
Bit rate : 164 Kbps
Maximum bit rate : 254 Kbps
Channel(s) : 2 channels
Channel positions : Front: L R
Sampling rate : 48.0 KHz
Compression mode : Lossy
Stream size : 47.0 MiB (9%)
Language : Russian
Encoded date : UTC 2013-02-10 12:00:42
Tagged date : UTC 2013-02-10 12:01:03
Audio #2
ID : 3
Format : AAC
Format/Info : Advanced Audio Codec
Format profile : LC
Codec ID : 40
Duration : 39mn 59s
Bit rate mode : Variable
Bit rate : 164 Kbps
Maximum bit rate : 247 Kbps
Channel(s) : 2 channels
Channel positions : Front: L R
Sampling rate : 48.0 KHz
Compression mode : Lossy
Stream size : 47.0 MiB (9%)
Language : English
Encoded date : UTC 2013-02-10 12:00:42
Tagged date : UTC 2013-02-10 12:01:41
MediaInfo 720p Release
Код:
General
Complete name : The Greatest Places (IMAX) (HD).m4v
Format : MPEG-4
Codec ID : M4V
File size : 1.84 GiB
Duration : 39mn 59s
Overall bit rate mode : Variable
Overall bit rate : 6 594 Kbps
Movie name : The Greatest Places (IMAX)
Performer : Mal Wolfe
Genre : Documentary
ContentType : Short Film
Description : Камера покажет Вам гораздо больше, чем может увидеть турист. Вы удивитесь роскоши дворцов, соприкоснетесь с древними тайнами, восхититесь творениями природы.
Recorded date : UTC 1998-01-01 08:00:00
Encoded date : UTC 2011-09-01 13:13:56
Tagged date : UTC 2015-03-20 19:29:31
Cover : Yes
Rating : None
Title/Sort : Greatest Places
LongDescription : Камера покажет Вам гораздо больше, чем может увидеть турист. Вы удивитесь роскоши дворцов, соприкоснетесь с древними тайнами, восхититесь творениями природы. Нет на земле такого места, куда нельзя добраться на Вашем ковре-самолете. Вас ждут фантастические виды, неожиданные ракурсы, незабываемое путешествие и подлинные Чудеса - величайшие создания цивилизации. Когда страсть зодчего соединяется с тягой к прекрасному, рождается чудо - удивительное сооружение, над которым не властно время.
HDVideo : Yes
AppleStoreCatalogID : 436992603
Vendor : Apple:vendor_id:1998-109580
ContentRating : mpaa|NR|000|
iTunMOVI : <?xml version="1.0" encoding="UTF-8"?> / <!DOCTYPE plist PUBLIC "-//Apple//DTD PLIST 1.0//EN" "http://www.apple.com/DTDs/PropertyList-1.0.dtd"> / <plist version="1.0"> / <dict> /  <key>cast</key> /  <array> /   <dict> /    <key>name</key> /    <string>Эйвери Брукс</string> /   </dict> /  </array> /  <key>directors</key> /  <array> /   <dict> /    <key>name</key> /    <string>Мэл Вульф</string> /   </dict> /  </array> /  <key>producers</key> /  <array> /   <dict> /    <key>name</key> /    <string>Майкл Кук</string> /   </dict> /   <dict> /    <key>name</key> /    <string>Michael Boeckmann</string> /   </dict> /   <dict> /    <key>name</key> /    <string>Майк Дэй</string> /   </dict> /  </array> /  <key>screenwriters</key> /  <array> /   <dict> /    <key>name</key> /    <string>Памела Стэйси</string> /   </dict> /  </array> /  <key>studio</key> /  <string>Inception Media Group</string> / </dict> / </plist>
Video
ID : 1
Format : AVC
Format/Info : Advanced Video Codec
Format profile : High@L3.1
Format settings, CABAC : No
Format settings, ReFrames : 3 frames
Codec ID : avc1
Codec ID/Info : Advanced Video Coding
Duration : 39mn 59s
Bit rate : 5 000 Kbps
Width : 1 280 pixels
Height : 720 pixels
Display aspect ratio : 16:9
Frame rate mode : Variable
Frame rate : 23.976 fps
Minimum frame rate : 23.974 fps
Maximum frame rate : 23.981 fps
Color space : YUV
Chroma subsampling : 4:2:0
Bit depth : 8 bits
Scan type : Progressive
Bits/(Pixel*Frame) : 0.226
Stream size : 1.39 GiB (75%)
Writing library : x264 core 115
Encoding settings : cabac=0 / ref=3 / deblock=1:-1:-1 / analyse=0x3:0x113 / me=umh / subme=9 / psy=1 / psy_rd=1.00:0.00 / mixed_ref=1 / me_range=32 / chroma_me=1 / trellis=0 / 8x8dct=1 / cqm=0 / deadzone=21,11 / fast_pskip=0 / chroma_qp_offset=-2 / threads=6 / sliced_threads=0 / nr=0 / decimate=1 / interlaced=0 / bluray_compat=0 / constrained_intra=0 / bframes=3 / b_pyramid=0 / b_adapt=2 / b_bias=0 / direct=1 / weightb=0 / open_gop=0 / weightp=0 / keyint=240 / keyint_min=24 / scenecut=40 / intra_refresh=0 / rc_lookahead=40 / rc=2pass / mbtree=1 / bitrate=5000 / ratetol=1.0 / qcomp=0.60 / qpmin=3 / qpmax=69 / qpstep=4 / cplxblur=20.0 / qblur=0.5 / vbv_maxrate=9500 / vbv_bufsize=9500 / nal_hrd=none / ip_ratio=1.40 / aq=1:1.00
Language : English
Encoded date : UTC 2011-09-01 13:13:56
Tagged date : UTC 2011-09-01 13:14:46
Color primaries : BT.709
Transfer characteristics : BT.709
Matrix coefficients : BT.709
Audio #1
ID : 2
Format : AAC
Format/Info : Advanced Audio Codec
Format profile : LC
Codec ID : 40
Duration : 39mn 59s
Bit rate mode : Variable
Bit rate : 164 Kbps
Maximum bit rate : 254 Kbps
Channel(s) : 2 channels
Channel positions : Front: L R
Sampling rate : 48.0 KHz
Compression mode : Lossy
Stream size : 47.0 MiB (2%)
Language : Russian
Encoded date : UTC 2011-09-01 13:13:56
Tagged date : UTC 2011-09-01 13:13:58
Audio #2
ID : 3
Format : AAC
Format/Info : Advanced Audio Codec
Format profile : LC
Codec ID : 40
Duration : 39mn 59s
Bit rate mode : Variable
Bit rate : 164 Kbps
Maximum bit rate : 247 Kbps
Channel(s) : 2 channels
Channel positions : Front: L R
Sampling rate : 48.0 KHz
Compression mode : Lossy
Stream size : 47.0 MiB (2%)
Language : English
Encoded date : UTC 2011-09-01 13:13:56
Tagged date : UTC 2011-09-01 13:14:57
Audio #3
ID : 4
Format : AC-3
Format/Info : Audio Coding 3
Mode extension : CM (complete main)
Format settings, Endianness : Big
Codec ID : ac-3
Duration : 39mn 59s
Bit rate mode : Constant
Bit rate : 640 Kbps
Channel(s) : 6 channels
Channel positions : Front: L C R, Side: L R, LFE
Sampling rate : 48.0 KHz
Bit depth : 16 bits
Compression mode : Lossy
Stream size : 183 MiB (10%)
Language : Russian
Encoded date : UTC 2011-09-01 13:13:56
Tagged date : UTC 2011-09-01 13:15:07
Audio #4
ID : 5
Format : AC-3
Format/Info : Audio Coding 3
Mode extension : CM (complete main)
Format settings, Endianness : Big
Codec ID : ac-3
Duration : 39mn 59s
Bit rate mode : Constant
Bit rate : 640 Kbps
Channel(s) : 6 channels
Channel positions : Front: L C R, Side: L R, LFE
Sampling rate : 48.0 KHz
Bit depth : 16 bits
Compression mode : Lossy
Stream size : 183 MiB (10%)
Language : English
Encoded date : UTC 2011-09-01 13:13:56
Tagged date : UTC 2011-09-01 13:15:14
x264 лог 480p Release
Код:
x264 [info]: frame I:561   Avg QP:19.76  size: 25552  PSNR Mean Y:46.66 U:48.78 V:49.87 Avg:47.26 Global:45.13
x264 [info]: frame P:56973 Avg QP:22.99  size:  7634  PSNR Mean Y:41.96 U:44.59 V:45.91 Avg:42.72 Global:41.51
x264 [info]: mb I  I16..4: 46.8%  0.0% 53.2%
x264 [info]: mb P  I16..4:  1.1%  0.0%  1.4%  P16..4: 48.2% 17.5%  7.3%  0.0%  0.0%    skip:24.5%
x264 [info]: coded y,uvDC,uvAC intra: 53.3% 66.2% 35.4% inter: 27.7% 28.2% 5.0%
x264 [info]: i16 v,h,dc,p: 39% 22%  9% 31%
x264 [info]: i4 v,h,dc,ddl,ddr,vr,hd,vl,hu: 19% 15% 20%  7%  9%  9%  8%  7%  6%
x264 [info]: i8c dc,h,v,p: 57% 20% 15%  8%
x264 [info]: ref P L0: 76.7% 23.3%
x264 [info]: SSIM Mean Y:0.9734584 (15.761db)
x264 [info]: PSNR Mean Y:42.005 U:44.631 V:45.947 Avg:42.766 Global:41.537 kb/s:1497.83
x264 лог 720p Release
Код:
x264 [info]: frame I:285   Avg QP:16.87  size:133273  PSNR Mean Y:47.48 U:49.12 V:49.85 Avg:48.01 Global:46.80
x264 [info]: frame P:20378 Avg QP:18.84  size: 49206  PSNR Mean Y:44.81 U:46.60 V:47.77 Avg:45.41 Global:44.09
x264 [info]: frame B:36871 Avg QP:21.90  size: 12262  PSNR Mean Y:43.54 U:46.07 V:47.45 Avg:44.29 Global:43.26
x264 [info]: consecutive B-frames:  2.0% 24.5% 39.4% 34.1%
x264 [info]: mb I  I16..4: 12.0% 52.7% 35.3%
x264 [info]: mb P  I16..4:  1.5%  7.2%  3.7%  P16..4: 42.9% 26.3% 11.4%  0.0%  0.0%    skip: 7.1%
x264 [info]: mb B  I16..4:  0.2%  1.0%  0.5%  B16..8: 43.1%  9.3%  1.7%  direct: 7.5%  skip:36.7%  L0:37.1% L1:50.5% BI:12.4%
x264 [info]: 8x8 transform intra:57.6% inter:48.7%
x264 [info]: coded y,uvDC,uvAC intra: 84.5% 84.8% 61.1% inter: 24.8% 29.2% 6.2%
x264 [info]: i16 v,h,dc,p: 49% 16%  6% 29%
x264 [info]: i8 v,h,dc,ddl,ddr,vr,hd,vl,hu:  5%  9%  4% 11% 16% 14% 17% 10% 13%
x264 [info]: i4 v,h,dc,ddl,ddr,vr,hd,vl,hu:  6% 11%  3% 11% 16% 14% 17% 10% 12%
x264 [info]: i8c dc,h,v,p: 51% 22% 16% 12%
x264 [info]: ref P L0: 76.5% 14.2%  9.3%
x264 [info]: ref B L0: 82.6% 17.4%
x264 [info]: SSIM Mean Y:0.9780996 (16.595db)
x264 [info]: PSNR Mean Y:44.012 U:46.273 V:47.579 Avg:44.704 Global:43.550 kb/s:4976.82
Скриншоты 480p Release
Скриншоты 720p Release



Релиз подготовлен для просмотра на Apple TV, iPad, iPhone, iPod Touch.
Для просмотра данного релиза на компьютере с ОС Windows рекомендуется использовать VLC media player
Зарегистрирован:
  • 01-Сен-11 16:42
  • Скачан: 2,474 раза

Скачать .torrent

24 KB

Тип: обычная
Статус: проверено
Размер: 2.36 GB  ·  magnetC9C2F5CC58CB82D5B5BAE0F9355B3D128F06E666
  • Свернуть поддиректории
  • Развернуть
  • Переключить
  • Увел./умен. окно
загружается...
 
All rights reserved © 2017-2018
Loading...
Error