[ATV3] √енезис / Genesis (ћари ѕерену / Marie Pérennou ) [2004, ‘ранци€, »тали€, ƒокументальный, BDRip, HD (1080p)] VO + Original + sub (rus)

—татистика раздачи
–азмер:  9.12 GB   |   «арегистрирован:  4 года 4 мес€ца   |   .torrent скачан:  906 раз
—иды:  1   Ћичи:  1
јвтор
—ообщение

pk5360114

—таж: 9 лет 9 мес€цев

—ообщений: 4046

flag

pk5360114 · 05-»юл-14 16:00 (4 года 4 мес€ца назад)

 

√енезис / Genesis
-
7.607 / 10 7.00 / 10

√од выпуска: 2004
—трана: ‘ранци€, »тали€
∆анр: ƒокументальный
ѕродолжительность: 01:20:53
ѕеревод: —тудийный (одноголосый закадровый)
ќригинальна€ аудиодорожка: ≈сть
—убтитры: –усские
–ежиссЄр: ћари ѕерену
—ценарий:  лод Ќуридзани, ћари ѕерену
ѕродюсер:  ристин √озлан, јлен —ард
ќператор: ѕатрис ќбертель, ¬иль€м Ћюбчански,  лод Ќуридзани
 омпозитор: Ѕруно  уле
’удожник: ∆ан-Ѕаптист ѕуаро, Ёстер ћарти  у€т
ћонтаж: ѕолин  асали, ћари-∆озеф …ойотт
¬ рол€х: —отиги  у€те
Ѕюджет: И9 150 000
—боры в —Ўј: $16 413
—боры в мире:
—боры в –оссии: $55 000
ћирова€ премьера: 27 сент€бр€ 2004
ѕремьера (–‘): 27 €нвар€ 2005, Ђ—оюзї
–елиз на DVD: 17 феврал€ 2005, Ђ—оюз-¬идеої
–елиз на Blu-Ray:
ќписание: —озданный в стилистике Ђћикрокосмосаї и Ђѕтицї, Ђ√енезисї гораздо более амбициозный проект, рассказывающий о происхождении ¬селенной и жизни на нашей планете: флоры, фауны и человеческой расы. Ќа создание фильма ушло почти 10 лет.
 ачество исходника: Blu-Ray
 ачество: BDRip
“ип: HD (1080p)
 онтейнер: M4V
¬идео: H.264, 1920x1040, 1.85:1, 14.7 Mbps, 23.976 fps
јудио 1: –усский/—тудийный (одноголосый закадровый) , AAC / 2.0 / 160 Kbps / 48.0 KHz
јудио 2: ‘ранцузский/ќригинальна€ дорожка , AAC / 2.0 / 159 Kbps / 48.0 KHz
јудио 3: –усский/—тудийный (одноголосый закадровый) , AC-3 / 5.1 / 640 Kbps / 48.0 KHz
јудио 4: ‘ранцузский/ќригинальна€ дорожка , AC-3 / 5.1 / 640 Kbps / 48.0 KHz
—убтитры: –усские полные


iTunes Meta Tags
 од:
Sort Name: Genesis
XID: Apple:vendor_id:2004-85018
contentID: 85018
Screenwriters:  лод Ќуридзани, ћари ѕерену
Producers:  ристин √озлан, јлен —ард
Director:  лод Ќуридзани, ћари ѕерену
Cast: —отиги  у€те
Rating: 0
Long Description: —озданный в стилистике "ћикрокосмоса" и "ѕтиц", "√енезис" гораздо более амбициозный проект, рассказывающий о происхождении ¬селенной и жизни на нашей планете: флоры, фауны и человеческой расы. Ќа создание фильма ушло почти 10 лет.
Description: —озданный в стилистике "ћикрокосмоса" и "ѕтиц", "√енезис" гораздо более амбициозный проект, рассказывающий о происхождении ¬селенной и жизни на нашей планете: флоры, фауны и человеческой расы. Ќа создание фильма ушло почти 10 лет.
Release Date: 2004-09-27T08:00:00Z
Genre: Documentary
Artist: Claude Nuridzani, Mari Perena
Name: Genesis
MediaInfo
 од:
General
Complete name                            : /Users/imac/HandBrake/Genezis (1080p HD).m4v
Format                                   : MPEG-4
Codec ID                                 : M4V
File size                                : 9.12 GiB
Duration                                 : 1h 20mn
Overall bit rate mode                    : Variable
Overall bit rate                         : 16.2 Mbps
Movie name                               : Genesis
Performer                                : Claude Nuridzani, Mari Perena
Genre                                    : Documentary
Recorded date                            : UTC 2004-09-27 08:00:00
Encoded date                             : UTC 2014-07-05 12:28:40
Tagged date                              : UTC 2014-07-05 12:34:46
Cover                                    : Yes
sonm                                     : Genesis
desc                                     : —озданный в стилистике "ћикрокосмоса" и "ѕтиц", "√енезис" гораздо более амбициозный проект, рассказывающий о происхождении ¬селенной и жизни на нашей планете: флоры, фауны и человеческой расы. Ќа создание фильма ушло почти 10 лет.
ldes                                     : —озданный в стилистике "ћикрокосмоса" и "ѕтиц", "√енезис" гораздо более амбициозный проект, рассказывающий о происхождении ¬селенной и жизни на нашей планете: флоры, фауны и человеческой расы. Ќа создание фильма ушло почти 10 лет.
hdvd                                     : 2
stik                                     : 9
rtng                                     : 0
cnID                                     : 85018
xid                                      : Apple:vendor_id:2004-85018
iTunEXTC                                 : mpaa|Unrated|???|
iTunMOVI                                 : <?xml version=\"1.0\" encoding=\"UTF-8\"?> / <!DOCTYPE plist PUBLIC \"-//Apple//DTD PLIST 1.0//EN\" \"http://www.apple.com/DTDs/PropertyList-1.0.dtd\"> / <plist version=\"1.0\"> / <dict> /  <key>cast</key> /  <array> /   <dict> /    <key>name</key> /    <string>—отиги  у€те</string> /   </dict> /  </array> /  <key>directors</key> /  <array> /   <dict> /    <key>name</key> /    <string> лод Ќуридзани</string> /   </dict> /   <dict> /    <key>name</key> /    <string>ћари ѕерену</string> /   </dict> /  </array> /  <key>producers</key> /  <array> /   <dict> /    <key>name</key> /    <string> ристин √озлан</string> /   </dict> /   <dict> /    <key>name</key> /    <string>јлен —ард</string> /   </dict> /  </array> /  <key>screenwriters</key> /  <array> /   <dict> /    <key>name</key> /    <string> лод Ќуридзани</string> /   </dict> /   <dict> /    <key>name</key> /    <string>ћари ѕерену</string> /   </dict> /  </array> / </dict> / </plist>
Video #1
ID                                       : 1
Format                                   : AVC
Format/Info                              : Advanced Video Codec
Format profile                           : High@L4.0
Format settings, CABAC                   : Yes
Format settings, ReFrames                : 4 frames
Codec ID                                 : avc1
Codec ID/Info                            : Advanced Video Coding
Duration                                 : 1h 20mn
Bit rate mode                            : Variable
Bit rate                                 : 14.7 Mbps
Width                                    : 1 920 pixels
Height                                   : 1 040 pixels
Display aspect ratio                     : 1.85:1
Frame rate mode                          : Variable
Frame rate                               : 23.976 fps
Minimum frame rate                       : 23.974 fps
Maximum frame rate                       : 90 000.000 fps
Color space                              : YUV
Chroma subsampling                       : 4:2:0
Bit depth                                : 8 bits
Scan type                                : Progressive
Bits/(Pixel*Frame)                       : 0.307
Stream size                              : 8.22 GiB (90%)
Writing library                          : x264 core 130 r2273 b3065e6
Encoding settings                        : cabac=1 / ref=4 / deblock=1:0:0 / analyse=0x3:0x133 / me=umh / subme=10 / psy=1 / psy_rd=1.00:0.00 / mixed_ref=1 / me_range=32 / chroma_me=1 / trellis=2 / 8x8dct=1 / cqm=0 / deadzone=21,11 / fast_pskip=1 / chroma_qp_offset=-2 / threads=12 / lookahead_threads=1 / sliced_threads=0 / nr=0 / decimate=1 / interlaced=0 / bluray_compat=0 / constrained_intra=0 / bframes=4 / b_pyramid=2 / b_adapt=2 / b_bias=0 / direct=3 / weightb=1 / open_gop=0 / weightp=2 / keyint=240 / keyint_min=24 / scenecut=40 / intra_refresh=0 / rc_lookahead=40 / rc=2pass / mbtree=0 / bitrate=14700 / ratetol=1.0 / qcomp=0.60 / qpmin=0 / qpmax=69 / qpstep=4 / cplxblur=20.0 / qblur=0.5 / vbv_maxrate=25000 / vbv_bufsize=25000 / nal_hrd=none / ip_ratio=1.40 / pb_ratio=1.30 / aq=1:1.00
Language                                 : French
Encoded date                             : UTC 2014-07-05 12:28:40
Tagged date                              : UTC 2014-07-05 12:33:09
Color primaries                          : BT.709-5, BT.1361, IEC 61966-2-4, SMPTE RP177
Transfer characteristics                 : BT.709-5, BT.1361
Matrix coefficients                      : BT.709-5, BT.1361, IEC 61966-2-4 709, SMPTE RP177
Video #2
ID                                       : 7
Format                                   : JPEG
Codec ID                                 : jpeg
Duration                                 : 1h 20mn
Bit rate mode                            : Variable
Bit rate                                 : 2 042 bps
Width                                    : 640 pixels
Height                                   : 350 pixels
Display aspect ratio                     : 1.85:1
Frame rate mode                          : Variable
Frame rate                               : 0.004 fps
Minimum frame rate                       : 0.002 fps
Maximum frame rate                       : 0.012 fps
Color space                              : YUV
Chroma subsampling                       : 4:2:0
Bit depth                                : 8 bits
Compression mode                         : Lossy
Bits/(Pixel*Frame)                       : 2.279
Stream size                              : 1.10 MiB (0%)
Language                                 : French
Encoded date                             : UTC 2014-07-05 12:28:40
Tagged date                              : UTC 2014-07-05 12:28:44
Audio #1
ID                                       : 2
Format                                   : AAC
Format/Info                              : Advanced Audio Codec
Format profile                           : LC
Codec ID                                 : 40
Duration                                 : 1h 20mn
Bit rate mode                            : Variable
Bit rate                                 : 160 Kbps
Maximum bit rate                         : 235 Kbps
Channel(s)                               : 2 channels
Channel positions                        : Front: L R
Sampling rate                            : 48.0 KHz
Compression mode                         : Lossy
Stream size                              : 91.8 MiB (1%)
Language                                 : Russian
Encoded date                             : UTC 2014-07-05 12:28:40
Tagged date                              : UTC 2014-07-05 12:33:10
Audio #2
ID                                       : 3
Format                                   : AAC
Format/Info                              : Advanced Audio Codec
Format profile                           : LC
Codec ID                                 : 40
Duration                                 : 1h 20mn
Bit rate mode                            : Variable
Bit rate                                 : 159 Kbps
Maximum bit rate                         : 231 Kbps
Channel(s)                               : 2 channels
Channel positions                        : Front: L R
Sampling rate                            : 48.0 KHz
Compression mode                         : Lossy
Stream size                              : 91.3 MiB (1%)
Language                                 : French
Encoded date                             : UTC 2014-07-05 12:28:40
Tagged date                              : UTC 2014-07-05 12:33:10
Audio #3
ID                                       : 4
Format                                   : AC-3
Format/Info                              : Audio Coding 3
Mode extension                           : CM (complete main)
Format settings, Endianness              : Big
Codec ID                                 : ac-3
Duration                                 : 1h 20mn
Bit rate mode                            : Constant
Bit rate                                 : 640 Kbps
Channel(s)                               : 6 channels
Channel positions                        : Front: L C R, Side: L R, LFE
Sampling rate                            : 48.0 KHz
Bit depth                                : 16 bits
Compression mode                         : Lossy
Stream size                              : 368 MiB (4%)
Language                                 : Russian
Encoded date                             : UTC 2014-07-05 12:28:40
Tagged date                              : UTC 2014-07-05 12:30:20
Audio #4
ID                                       : 5
Format                                   : AC-3
Format/Info                              : Audio Coding 3
Mode extension                           : CM (complete main)
Format settings, Endianness              : Big
Codec ID                                 : ac-3
Duration                                 : 1h 20mn
Bit rate mode                            : Constant
Bit rate                                 : 640 Kbps
Channel(s)                               : 6 channels
Channel positions                        : Front: L C R, Side: L R, LFE
Sampling rate                            : 48.0 KHz
Bit depth                                : 16 bits
Compression mode                         : Lossy
Stream size                              : 368 MiB (4%)
Language                                 : French
Encoded date                             : UTC 2014-07-05 12:28:40
Tagged date                              : UTC 2014-07-05 12:30:23
Text #1
ID                                       : 6
Format                                   : Timed text
Muxing mode                              : sbtl
Codec ID                                 : tx3g
Duration                                 : 1h 17mn
Bit rate mode                            : Variable
Bit rate                                 : 31 bps
Stream size                              : 17.7 KiB (0%)
Language                                 : Russian
Encoded date                             : UTC 2014-07-05 12:28:40
Tagged date                              : UTC 2014-07-05 12:28:45
Text #2
ID                                       : 8
Format                                   : Apple text
Codec ID                                 : text
Duration                                 : 1h 20mn
Bit rate mode                            : Variable
Bit rate                                 : 1 bps
Stream size                              : 423 Bytes (0%)
Language                                 : French
Encoded date                             : UTC 2014-07-05 12:33:10
Tagged date                              : UTC 2014-07-05 12:33:10
Menu
00:00:00.000                             : Chapter 1
00:07:54.515                             : Chapter 2
00:10:35.175                             : Chapter 3
00:14:42.046                             : Chapter 4
00:16:54.511                             : Chapter 5
00:18:23.349                             : Chapter 6
00:23:49.383                             : Chapter 7
00:32:05.503                             : Chapter 8
00:34:39.281                             : Chapter 9
00:39:23.481                             : Chapter 10
00:44:37.044                             : Chapter 11
00:47:46.274                             : Chapter 12
00:49:11.942                             : Chapter 13
00:54:30.218                             : Chapter 14
00:59:26.263                             : Chapter 15
01:05:22.493                             : Chapter 16
01:10:24.711                             : Chapter 17
01:14:04.972                             : Chapter 18
x264 лог
 од:
x264 [info]: frame I:682   Avg QP:18.90  size:221908  PSNR Mean Y:45.04 U:49.55 V:50.37 Avg:46.11 Global:45.09
x264 [info]: frame P:31251 Avg QP:20.50  size:112925  PSNR Mean Y:43.46 U:48.13 V:48.94 Avg:44.55 Global:43.23
x264 [info]: frame B:83720 Avg QP:22.86  size: 61486  PSNR Mean Y:41.83 U:47.35 V:48.29 Avg:43.03 Global:41.80
x264 [info]: consecutive B-frames:  3.3%  4.2% 11.9% 41.5% 39.0%
x264 [info]: mb I  I16..4:  7.7% 81.6% 10.7%
x264 [info]: mb P  I16..4:  2.0% 17.7%  1.2%  P16..4: 34.0% 24.9% 11.2%  0.2%  0.0%    skip: 8.8%
x264 [info]: mb B  I16..4:  0.3%  2.9%  0.2%  B16..8: 43.2% 15.7%  4.5%  direct:12.8%  skip:20.5%  L0:41.6% L1:46.2% BI:12.2%
x264 [info]: 8x8 transform intra:84.5% inter:70.8%
x264 [info]: direct mvs  spatial:95.4% temporal:4.6%
x264 [info]: coded y,uvDC,uvAC intra: 88.3% 76.2% 37.2% inter: 57.6% 40.4% 2.4%
x264 [info]: i16 v,h,dc,p: 78% 12%  6%  4%
x264 [info]: i8 v,h,dc,ddl,ddr,vr,hd,vl,hu:  5%  9%  5% 10% 16% 13% 16% 11% 14%
x264 [info]: i4 v,h,dc,ddl,ddr,vr,hd,vl,hu:  6%  8%  5%  8% 16% 14% 17% 11% 16%
x264 [info]: i8c dc,h,v,p: 40% 28% 15% 16%
x264 [info]: Weighted P-Frames: Y:7.1% UV:2.3%
x264 [info]: ref P L0: 44.3% 13.0% 27.3% 12.9%  2.4%  0.1%
x264 [info]: ref B L0: 82.3% 13.5%  4.2%
x264 [info]: ref B L1: 92.0%  8.0%
x264 [info]: SSIM Mean Y:0.9683619 (14.998db)
x264 [info]: PSNR Mean Y:42.293 U:47.576 V:48.477 Avg:43.459 Global:42.154 kb/s:14641.04
—криншоты



–елиз подготовлен дл€ просмотра на Apple TV, iPad, iPhone, iPod Touch.
ƒл€ просмотра данного релиза на компьютере с ќ— Windows рекомендуетс€ использовать VLC media player
«арегистрирован:
  • 05-»юл-14 16:00
  • —качан: 906 раз

—качать .torrent

91 KB

“ип: обычна€
—татус: проверено
–азмер: 9.12 GB  ·  magnet6959CCD768B5EDEEC67AFE5D39F0FCBBB3045C8E
  • —вернуть поддиректории
  • –азвернуть
  • ѕереключить
  • ”вел./умен. окно
загружаетс€...
 
All rights reserved © 2017-2018
Loading...
Error