Рыбка Поньо на утесе / Gake no Ue no Ponyo / Ponyo on the Cliff by the Sea [Movie] [Без хардсаба] [RUS(int), JAP+SUB] [2008, сказка, приключения, повседневность, BDRip] [720p] [HD]

Автор
Сообщение

Reigar.

Top Loader 04* 1TB

Стаж: 7 лет 11 месяцев

Сообщений: 209

Reigar. · 09-Сен-14 15:05 (4 года 2 месяца назад, ред. 10-Сен-14 19:45)

Страна: Япония
Год выпуска: 2008 г.
Жанр: сказка, приключения, повседневность
Тип: Movie
Продолжительность: 101 мин.
Режиссер: Миядзаки Хаяо
Студия:

Перевод:
  1. русские субтитры от RUSCICO (ass/srt)
  2. русские субтитры от Киномания (ass/srt)
  3. русские субтитры от Urusai-team (ass/srt)
  4. английские субтитры с BD (ass/srt)

Озвучка:
  1. полное дублирование от RUSCICO
  2. многоголосая от Киномания
  3. авторская одноголосая от Ю. Немахова

Описание: Отец Сосукэ – моряк, мать – социальный работник, а сам он – маленький мальчик из дома на утесе. Однажды утром он находит в море удивительную рыбешку: у нее человеческое лицо и красные плавнички, она любит колбасу и умеет колдовать. Сосукэ называет свою находку «Поньо» и решает беречь и защищать. Откуда ему знать, что он выловил дочь морской владычицы и тем обрек себя на удивительные приключения в самом ближайшем будущем?..
© Анастасия Розанова, World Art
Качество: BDRip
Автор рипа: THORA
Тип релиза: Без хардсаба
Формат видео: MKV
Видео: AVC (8bit), 1280x692, 6384 kbps, 23,976 fps
Аудио RUS#1 (int.): AC3, 448 kbps, 48000 Hz, 6ch - RUSCICO
Аудио RUS#2 (int.): AC3, 448 kbps, 48000 Hz, 6ch - Киномания
Аудио RUS#3 (int.): AC3, 448 kbps, 48000 Hz, 6ch - Немахов
Аудио JAP: AC3, 640 kbps, 48000 Hz, 6ch
Подробные тех. данные
Формат : Matroska
Версия формата : Version 2
Размер файла : 6,01 Гбайт
Продолжительность : 1 ч. 40 м.
Общий поток : 8538 Кбит/сек
Название фильма : Gake no ue no Ponyo (2008)
Дата кодирования : UTC 2014-09-09 11:03:36
Программа кодирования : mkvmerge v5.8.0 ('No Sleep / Pillow') built on Sep 2 2012 15:37:04
Библиотека кодирования : libebml v1.2.3 + libmatroska v1.3.0
Видео
Идентификатор : 1
Формат : AVC
Формат/Информация : Advanced Video Codec
Профиль формата : High@L4.1
Параметр CABAC формата : Да
Параметр ReFrames формата : 7 кадров
Идентификатор кодека : V_MPEG4/ISO/AVC
Продолжительность : 1 ч. 40 м.
Битрейт : 6384 Кбит/сек
Ширина : 1280 пикселей
Высота : 692 пикселя
Соотношение сторон : 1,85:1
Режим частоты кадров : Постоянный
Частота кадров : 23,976 кадра/сек
Цветовое пространство : YUV
Субдискретизация насыщенности : 4:2:0
Битовая глубина : 8 бит
Тип развёртки : Прогрессивная
Бит/(Пиксели*Кадры) : 0.301
Размер потока : 4,50 Гбайт (75%)
Библиотека кодирования : x264 core 00000000000000000
Язык : Japanese
Default : Да
Forced : Нет
Аудио #1
Идентификатор : 2
Формат : AC-3
Формат/Информация : Audio Coding 3
Расширение режима : CM (complete main)
Параметр Endianness формата : Big
Идентификатор кодека : A_AC3
Продолжительность : 1 ч. 40 м.
Вид битрейта : Постоянный
Битрейт : 448 Кбит/сек
Каналы : 6 каналов
Расположение каналов : Front: L C R, Side: L R, LFE
Частота : 48,0 КГц
Битовая глубина : 16 бит
Метод сжатия : С потерями
Размер потока : 323 Мбайт (5%)
Заголовок : RUSCICO
Язык : Russian
Default : Да
Forced : Нет
Аудио #2
Идентификатор : 3
Формат : AC-3
Формат/Информация : Audio Coding 3
Расширение режима : CM (complete main)
Параметр Endianness формата : Big
Идентификатор кодека : A_AC3
Продолжительность : 1 ч. 40 м.
Вид битрейта : Постоянный
Битрейт : 448 Кбит/сек
Каналы : 6 каналов
Расположение каналов : Front: L C R, Side: L R, LFE
Частота : 48,0 КГц
Битовая глубина : 16 бит
Метод сжатия : С потерями
Размер потока : 323 Мбайт (5%)
Заголовок : Киномания
Язык : Russian
Default : Нет
Forced : Нет
Аудио #3
Идентификатор : 4
Формат : AC-3
Формат/Информация : Audio Coding 3
Расширение режима : CM (complete main)
Параметр Endianness формата : Big
Идентификатор кодека : A_AC3
Продолжительность : 1 ч. 40 м.
Вид битрейта : Постоянный
Битрейт : 448 Кбит/сек
Каналы : 6 каналов
Расположение каналов : Front: L C R, Side: L R, LFE
Частота : 48,0 КГц
Битовая глубина : 16 бит
Метод сжатия : С потерями
Размер потока : 323 Мбайт (5%)
Заголовок : Немахов
Язык : Russian
Default : Нет
Forced : Нет
Аудио #4
Идентификатор : 5
Формат : AC-3
Формат/Информация : Audio Coding 3
Расширение режима : CM (complete main)
Параметр Endianness формата : Big
Идентификатор кодека : A_AC3
Продолжительность : 1 ч. 40 м.
Вид битрейта : Постоянный
Битрейт : 640 Кбит/сек
Каналы : 6 каналов
Расположение каналов : Front: L C R, Side: L R, LFE
Частота : 48,0 КГц
Битовая глубина : 16 бит
Метод сжатия : С потерями
Размер потока : 462 Мбайт (7%)
Язык : Japanese
Default : Нет
Forced : Нет
Меню
00:00:00.000 : en:Chapter 01
00:04:34.983 : en:Chapter 02
00:09:58.306 : en:Chapter 03
00:16:14.098 : en:Chapter 04
00:21:02.094 : en:Chapter 05
00:27:07.584 : en:Chapter 06
00:35:21.369 : en:Chapter 07
00:41:21.771 : en:Chapter 08
00:48:34.203 : en:Chapter 09
00:55:21.652 : en:Chapter 10
01:02:00.675 : en:Chapter 11
01:08:53.171 : en:Chapter 12
01:12:58.833 : en:Chapter 13
01:19:22.925 : en:Chapter 14
01:24:30.857 : en:Chapter 15
01:29:08.885 : en:Chapter 16
01:34:54.772 : en:Chapter 17
01:39:09.902 : en:Chapter 18
Скриншоты
Download
Для скачивания .torrent файлов необходима регистрация
Сайт не распространяет и не хранит электронные версии произведений, а лишь предоставляет доступ к создаваемому пользователями каталогу ссылок на торрент-файлы, которые содержат только списки хеш-сумм

Buka63

Moderator

Стаж: 7 лет 7 месяцев

Сообщений: 9338

Buka63 · 12-Сен-14 09:12 (спустя 2 дня 18 часов)

Проверено
 
All rights reserved © 2017-2018
Loading...
Error