(Melodic Rock/AOR) Work Of Art - Дискография 2008-2014 (Японские издания, 3 альбома), FLAC (image+.cue), lossless

Статистика раздачи
Размер:  1.53 GB   |   Зарегистрирован:  4 года 1 месяц   |   .torrent скачан:  1,431 раз
Сиды:  2
Автор
Сообщение

kolushew

Стаж: 9 лет 10 месяцев

Сообщений: 2406

flag

kolushew · 04-Окт-14 11:44 (4 года 1 месяц назад, ред. 05-Окт-14 10:50)

 

Дискография 2008-2014Жанр: Melodic Rock / AOR
Страна-производитель дисков: Japan
Издатель (лейбл): King Records
Страна: Sweden
Аудиокодек: FLAC (*.flac)
Тип рипа: image+.cue
Битрейт аудио: lossless
Продолжительность: 2 часа 47 минут
Источник (релизер): собственные рипы с личных CD
Наличие сканов в содержимом раздачи: да
2008 (08-3-26) – Artwork (KICP-1295)
Продолжительность: 56:14
Треклист:
1. Why Do I? - 4:36
2. Maria - 4:21
3. Camelia - 3:50
4. Her Only Lie - 3:54
5. Too Late - 4:26
6. Whenever U Sleep - 4:44
7. Once In A Lifetime - 4:43
8. Piece Of Mind - 4:42
9. Lost Without Your Love - 3:50
10. Like No Other - 3:58
11. Cover Me - 4:00
12. One Hour - 5:16
13. Camelia - acoustic version (bonus track for Japan) - 3:48
Состав группы:
Lars Säfsund - vocals, keyboards & programming
Robert Säll - guitars, keyboards & programming
Herman Furin - drums, keyboards & programming
additional musicians:
Andreas Olsson - bass
Urban Danielsson - bass on tracks 5, 10 & 12
Helling Axelsson - keyboards solos on tracks 6 & 8
Andreas Dahlbäck - bass vocals on track 10
Лог создания рипа
Exact Audio Copy V1.0 beta 3 from 29. August 2011
EAC extraction logfile from 4. October 2014, 12:22
Work Of Art / Artwork
Used drive : SlimtypeDVD A DS8A5SH Adapter: 0 ID: 1
Read mode : Secure
Utilize accurate stream : Yes
Defeat audio cache : Yes
Make use of C2 pointers : No
Read offset correction : 6
Overread into Lead-In and Lead-Out : No
Fill up missing offset samples with silence : Yes
Delete leading and trailing silent blocks : No
Null samples used in CRC calculations : Yes
Used interface : Native Win32 interface for Win NT & 2000
Used output format : User Defined Encoder
Selected bitrate : 320 kBit/s
Quality : High
Add ID3 tag : No
Command line compressor : C:\Program Files (x86)\Exact Audio Copy\Flac\flac.exe
Additional command line options : -V -8 -T "Date=%year%" -T "Genre=%genre%" %source%
TOC of the extracted CD
Track | Start | Length | Start sector | End sector
---------------------------------------------------------
1 | 0:00.00 | 4:36.23 | 0 | 20722
2 | 4:36.23 | 4:21.09 | 20723 | 40306
3 | 8:57.32 | 3:50.74 | 40307 | 57630
4 | 12:48.31 | 3:54.53 | 57631 | 75233
5 | 16:43.09 | 4:26.60 | 75234 | 95243
6 | 21:09.69 | 4:44.70 | 95244 | 116613
7 | 25:54.64 | 4:43.58 | 116614 | 137896
8 | 30:38.47 | 4:42.12 | 137897 | 159058
9 | 35:20.59 | 3:50.44 | 159059 | 176352
10 | 39:11.28 | 3:58.42 | 176353 | 194244
11 | 43:09.70 | 4:00.12 | 194245 | 212256
12 | 47:10.07 | 5:16.34 | 212257 | 235990
13 | 52:26.41 | 3:47.68 | 235991 | 253083
Range status and errors
Selected range
Filename D:\My Music\Work Of Art - 2008 Artwork\Work Of Art - Artwork.wav
Peak level 100.0 %
Extraction speed 4.4 X
Range quality 99.9 %
Test CRC 73DF18C6
Copy CRC 73DF18C6
Copy OK
No errors occurred
AccurateRip summary
Track 1 accurately ripped (confidence 3) [395AD332] (AR v2)
Track 2 accurately ripped (confidence 3) [C1FE99F0] (AR v2)
Track 3 accurately ripped (confidence 3) [9F5A6DC2] (AR v2)
Track 4 accurately ripped (confidence 3) [7BA4B94C] (AR v2)
Track 5 accurately ripped (confidence 3) [B1D7B7C4] (AR v2)
Track 6 accurately ripped (confidence 3) [2E60756F] (AR v2)
Track 7 accurately ripped (confidence 3) [81EA73E8] (AR v2)
Track 8 accurately ripped (confidence 3) [F0CC3BFE] (AR v2)
Track 9 accurately ripped (confidence 3) [C26CE2A7] (AR v2)
Track 10 accurately ripped (confidence 3) [7D34F0FE] (AR v2)
Track 11 accurately ripped (confidence 3) [AB3D8E2E] (AR v2)
Track 12 accurately ripped (confidence 3) [F59401CE] (AR v2)
Track 13 accurately ripped (confidence 3) [3B002A3D] (AR v2)
All tracks accurately ripped
End of status report
==== Log checksum 5C3AA9D3009EFDD5CC66B26D94E379AE50564CD0591B5171E1895C03EE80D991 ====
2011 (11-9-21) – In Progress (KICP-1587)
Продолжительность: 59:27
Треклист:
1. The Rain - 4:53
2. Nature Of The Game - 4:59
3. Once Again - 5:00
4. Never Love Again - 4:12
5. Eye Of The Storm - 3:51
6. Until You Believe - 5:02
7. The Great Fall - 4:04
8. Call On Me - 4:38
9. Emelie - 4:56
10. Fall Down - 4:14
11. Castaway - 4:39
12. One Step Away - 4:39
13. Fall Down - acoustic version (bonus track for Japan) - 4:14
Состав группы:
Lars Säfsund - vocals, keyboards & programming
Robert Säll - guitars, keyboards & programming
Herman Furin - drums, keyboards & programming
additional musicians:
Andreas Passmark - bass on tracks 1, 2, 4, 6, 7 & 8
Urban Danielsson - bass on tracks 5 & 10
Henrik Linder - bass on tracks 3 & 9
Jehad Hammad - bass on track 12
Jonas Grønning - keyboards solo on tracks 3, 5 & 8
Anders Rydholm - bass, keyboards & rhythm guitars on track 11
Лог создания рипа
Exact Audio Copy V1.0 beta 3 from 29. August 2011
EAC extraction logfile from 4. October 2014, 13:39
Work Of Art / In Progress
Used drive : SlimtypeDVD A DS8A5SH Adapter: 0 ID: 1
Read mode : Secure
Utilize accurate stream : Yes
Defeat audio cache : Yes
Make use of C2 pointers : No
Read offset correction : 6
Overread into Lead-In and Lead-Out : No
Fill up missing offset samples with silence : Yes
Delete leading and trailing silent blocks : No
Null samples used in CRC calculations : Yes
Used interface : Native Win32 interface for Win NT & 2000
Used output format : User Defined Encoder
Selected bitrate : 320 kBit/s
Quality : High
Add ID3 tag : No
Command line compressor : C:\Program Files (x86)\Exact Audio Copy\Flac\flac.exe
Additional command line options : -V -8 -T "Date=%year%" -T "Genre=%genre%" %source%
TOC of the extracted CD
Track | Start | Length | Start sector | End sector
---------------------------------------------------------
1 | 0:00.00 | 4:53.12 | 0 | 21986
2 | 4:53.12 | 4:59.71 | 21987 | 44482
3 | 9:53.08 | 5:00.07 | 44483 | 66989
4 | 14:53.15 | 4:12.57 | 66990 | 85946
5 | 19:05.72 | 3:51.69 | 85947 | 103340
6 | 22:57.66 | 5:02.37 | 103341 | 126027
7 | 28:00.28 | 4:04.23 | 126028 | 144350
8 | 32:04.51 | 4:38.51 | 144351 | 165251
9 | 36:43.27 | 4:56.45 | 165252 | 187496
10 | 41:39.72 | 4:14.36 | 187497 | 206582
11 | 45:54.33 | 4:39.33 | 206583 | 227540
12 | 50:33.66 | 4:39.03 | 227541 | 248468
13 | 55:12.69 | 4:14.28 | 248469 | 267546
Range status and errors
Selected range
Filename D:\My Music\Work Of Art - 2011 In Progress\Work Of Art - In Progress.wav
Peak level 99.9 %
Extraction speed 1.8 X
Range quality 100.0 %
Test CRC 006DDA47
Copy CRC 006DDA47
Copy OK
No errors occurred
AccurateRip summary
Track 1 accurately ripped (confidence 3) [F283D5B1] (AR v2)
Track 2 accurately ripped (confidence 3) [ABC25BC2] (AR v2)
Track 3 accurately ripped (confidence 3) [A7CA8FBB] (AR v2)
Track 4 accurately ripped (confidence 3) [516DACF1] (AR v2)
Track 5 accurately ripped (confidence 3) [EA62DED8] (AR v2)
Track 6 accurately ripped (confidence 3) [75A20F35] (AR v2)
Track 7 accurately ripped (confidence 3) [79521E1B] (AR v2)
Track 8 accurately ripped (confidence 3) [FEB476CD] (AR v2)
Track 9 accurately ripped (confidence 3) [E2068D3E] (AR v2)
Track 10 accurately ripped (confidence 3) [5A81CEC9] (AR v2)
Track 11 accurately ripped (confidence 3) [11A7D754] (AR v2)
Track 12 accurately ripped (confidence 3) [632D61CA] (AR v2)
Track 13 accurately ripped (confidence 3) [56D6206C] (AR v2)
All tracks accurately ripped
End of status report
==== Log checksum 8D1B5ACCE32B78D77B5461AD64580F1BE38DAC5B336690C9ADA2E18E06BA04EB ====
2014 (14-9-18) – Framework (KICP-1708)
Продолжительность: 51:13
Треклист:
1. Time To Let Go - 4:00
2. How Will I Know - 4:30
3. Shout Till You Wake Up - 4:54
4. Can't Let Go - 3:59
5. How Do You Sleep At Night - 4:28
6. Over The Line - 3:47
7. The Machine - 4:02
8. Hold On To Love - 4:05
9. Natalie - 4:38
10. The Turning Point - 4:03
11. My Waking Dream - 4:34
12. On The Edge Of Time (bonus track for Japan) - 4:07
Состав группы:
Lars Säfsund - vocals, keyboards, additional guitars
Robert Säll - guitars, keyboards & programming
Herman Furin - drums
additional musicians:
Andreas Passmark - bass on tracks 2, 3, 4, 7 & 9
Urban Danielsson - bass on tracks 5 & 8
Jehad Hammad - bass on track 11
Henrik Linder - bass on track 2
Per Björling - bass on track 6
Jonas Grønning - keyboards solo on tracks 3, 4 & 6
Anders Rydholm - bass & programming on track 10
Erik Lewander - additional guitars
Johan Franzan - drums on tracks 1 & 8
Per Svensson - background vocals on track 10
Peter Bylin - percussion on track 6
Лог создания рипа
Exact Audio Copy V1.0 beta 3 from 29. August 2011
EAC extraction logfile from 4. October 2014, 14:33
Work Of Art / Framework
Used drive : SlimtypeDVD A DS8A5SH Adapter: 0 ID: 1
Read mode : Secure
Utilize accurate stream : Yes
Defeat audio cache : Yes
Make use of C2 pointers : No
Read offset correction : 6
Overread into Lead-In and Lead-Out : No
Fill up missing offset samples with silence : Yes
Delete leading and trailing silent blocks : No
Null samples used in CRC calculations : Yes
Used interface : Native Win32 interface for Win NT & 2000
Used output format : User Defined Encoder
Selected bitrate : 320 kBit/s
Quality : High
Add ID3 tag : No
Command line compressor : C:\Program Files (x86)\Exact Audio Copy\Flac\flac.exe
Additional command line options : -V -8 -T "Date=%year%" -T "Genre=%genre%" %source%
TOC of the extracted CD
Track | Start | Length | Start sector | End sector
---------------------------------------------------------
1 | 0:00.00 | 4:00.08 | 0 | 18007
2 | 4:00.08 | 4:30.71 | 18008 | 38328
3 | 8:31.04 | 4:54.59 | 38329 | 60437
4 | 13:25.63 | 3:59.65 | 60438 | 78427
5 | 17:25.53 | 4:28.65 | 78428 | 98592
6 | 21:54.43 | 3:47.38 | 98593 | 115655
7 | 25:42.06 | 4:02.30 | 115656 | 133835
8 | 29:44.36 | 4:05.41 | 133836 | 152251
9 | 33:50.02 | 4:38.12 | 152252 | 173113
10 | 38:28.14 | 4:03.66 | 173114 | 191404
11 | 42:32.05 | 4:34.06 | 191405 | 211960
12 | 47:06.11 | 4:07.31 | 211961 | 230516
Range status and errors
Selected range
Filename D:\My Music\Work Of Art - 2014 Framework\Work Of Art - Framework.wav
Peak level 97.8 %
Extraction speed 1.8 X
Range quality 100.0 %
Test CRC 10FD3BE8
Copy CRC 10FD3BE8
Copy OK
No errors occurred
AccurateRip summary
Track 1 not present in database
Track 2 not present in database
Track 3 not present in database
Track 4 not present in database
Track 5 not present in database
Track 6 not present in database
Track 7 not present in database
Track 8 not present in database
Track 9 not present in database
Track 10 not present in database
Track 11 not present in database
Track 12 not present in database
None of the tracks are present in the AccurateRip database
End of status report
==== Log checksum 8D6AFD6BDBDA83485CEB8229EB8BBECB4FC585B794C0C361C3BEC5554F2FC0C3 ====
Мои Раздачи Дискографий
(Progressive Metal/Hard Rock) Royal Нunt - Дискография 1992-2013 (Японские издания, 21 альбом)
(Neo-Сlassical Progressive Power Metal/Instrumental) Bob Katsionis (Firewind, Outloud) - Дискография 2002-2012 (4 альбома)
(Progressive Power Metal) Angra - Дискография 1993-2013 (Японские издания, 16 альбомов)
(Progressive Power Metal) Theocracy - Дискография 2003-2011 (3 альбома)
(Melodic Progressive Power Metal) Platitude - Дискография 2003-2005 (Японские издания, 3 альбома)
(Melodic Heavy Metal) Fools Faith (ex-Aftermath) - Дискография 2007-2011 (2 альбома)
(Melodic Heavy Metal) Machine Men - Дискография 2004-2007 (Японские издания, 3 альбома)
(Melodic Heavy Metal) Winterborn - Дискография 2006-2008 (Японские издания, 2 альбома)
(Melodic Heavy Metal) Unisonic - Дискография 2012-2014 (Японские издания, 2 альбома + 2 EP)
(Melodic Heavy Metal/Glam) Kissin' Dynamite - Дискография 2008-2014 (4 альбома)
(Melodic Heavy/Power Metal) Silent Force - Дискография 2000-2013 (Японские издания, 5 альбомов)
(Melodic Modern Metal) Amaranthe - Дискография 2011-2013 (Японские издания, 2 альбома)
(Melodic Hard Rock/Metal) Pink Cream 69 - Дискография 1989 - 2013 (Японские издания, 18 CD)
(Melodic Hard Rock/Glam) The Poodles - Дискография 2006-2013 (Японские издания, 5 альбомов)
(Melodic Hard Rock/Glam) Casablanca - Дискография 2012-2013 (2 альбома)
(Melodic Hard Rock/AOR) Heartland - Дискография 1991-2011 (Японские издания, 14 CD)
(Melodic Hard Rock/AOR) FM - Дискография 1986-2013 (Японские и английские издания, 14 альбомов, 18 CD)
(Melodic Hard Rock/AOR) Ten - Дискография 1996-2012 (Японские издания, 16 альбомов)
(Melodic Hard Rock/AOR) Gary Hughes (Ten) - Дискография 1990-2007 (Японские издания, 7 CD)
(Melodic Hard Rock/AOR) Last Autumn's Dream - Дискография 2003-2013 (Японские издания, 13 альбомов)
(Melodic Hard Rock/AOR) Mastedon (John Elefante, ex-Kansas) - Дискография 1989-2009 (3 альбома)
(Melodic Hard Rock/AOR) Sunstorm (Joe Lynn Turner) - Японская Дискография 2006-2012 (3 альбома)
(Melodic Hard Rock/AOR) Bob Catley (Magnum) - Дискография 1998-2008 (Японские издания, 7 альбомов)
(Melodic Hard Rock/AOR) Acacia Avenue - Дискография 2010-2014 (2 альбома)
(Melodic Hard Rock/AOR) Newman - Дискография 1997 - 2013 (11 альбомов)
(Melodic Hard Rock/AOR) Degreed - Дискография 2010-2013 (Японские издания, 2 альбома)
(Melodic Hard Rock) Free Spirit - Дискография 2009-2014 (2 альбома)
(Melodic Hard Rock) Steelhouse Lane - Дискография 1998-1999 (Японские издания, 2 альбома)
(Melodic Hard Rock) Lover Under Cover (Mikael Erlandsson) - Дискография 2012-2014 (Японские издания, 2 альбома)
(Melodic Hard Rock) Badhoven - Дискография 2001-2013 (3 альбома)
(Melodic Hard Rock) Emerald Rain - Дискография 1997-2005 (Японские издания, 6 альбомов)
(Melodic Hard Rock) W.E.T. (Work Of Art / Eclipse / Talisman) - Дискография 2009-2014 (3 альбома)
(Melodic Hard Rock) Fortune (pre-The Poodles, Clockwise) - Дискография 1993-1995 (Японские издания, 3 альбома)
(Melodic Hard Rock) Rydell & Quick - Дискография 2006-2012 (2 альбома)
(Melodic Hard Rock) Valentine (Hugo) - Дискография 1990-2008 (2 альбома)
(Melodic Hard Rock) Fate - Дискография 1985-2013 (8 альбомов))
(Melodic Hard Rock) Outloud - Дискография 2009-2014 (4 альбомa)
(Melodic Hard Rock) House Of Lords - Дискография 1988-2014 (Японские издания, 9 альбомов)
(Melodic Hard Rock) Fair Warning - Дискография 1992-2013 (Японские издания, 16 альбомов)
(Melodic Hard Rock) Zeno (pre-Fair Warning) - Дискография 1986-2006 (Японские издания, 5 альбомов)
(Melodic Hard Rock) Dreamtide (ex-Fair Warning) - Дискография 2001-2008 (Японские издания, 3 альбома + 1EP)
(Hard Rock) Soul Doctor (ex-Fair Warning, Bonfire) - Дискография 2001-2009 (Японские издания, 6 альбомов)
(Hard Rock) Doogie White & La Paz - Дискография 2012-2013 (2 альбома)
(Hard Rock) Brazen Abbot (Nikolo Kotzev' Nostradamus) - Дискография 1995-2005 (Японские издания, 7 альбомов)
(Hard Rock) Mother's Army (Joe Lynn Turner) - Дискография 1993-1998 (Японские издания, 3 альбома)
(Hard Rock/Glam) Steel Panther - Дискография 2009-2014 (Японские издания, 3 альбома)
(Melodic Rock) Mikael Erlandsson (Last Autumn's Dream) - Дискография 1995-2002 (Японские издания, 5 альбомов)
(Melodic Rock/AOR) Think Out Loud (ex-Player) - Дискография 1988-1997 (2 альбома)
(Melodic Rock/AOR) Work Of Art - Дискография 2008-2014 (Японские издания, 3 альбома)
(Melodic Rock/AOR) Radioactive - Дискография 2001-2013 (4 альбома)
(Melodic Rock/AOR) Fergie Frederiksen (ex-Toto, Le Roux) - Дискография 1995 - 2013 (Японские издания, 5 альбомов)
(Melodic Rock/AOR) Lionville - Дискография 2011-2012 (Японские издания, 2 альбома)
(Melodic Rock/AOR) Pride Of Lions - Дискография 2003-2012 (Японские издания, 5 альбомов)
(Melodic Rock/AOR) Houston - Дискография 2010 - 2013 (3 альбома)
(Melodic Rock/AOR) Güru - Дискография 2010-2013 (2 альбома)
(Melodic Rock/AOR) Alliance (ex-Boston, Night Ranger) - Дискография 1996-2008 (4 альбома)
(Melodic Rock/AOR) Hugo (ex-Valentine, Open Skyz) - Дискография 1997-2004 (Японские издания, 3 альбома)
(Melodic Rock/AOR) Chasing Violets - Дискография 2012-2013 (2 альбома)
(Melodic Rock/AOR) Virginia Wolf (Heartland, Bonham) - Дискография 1986-1987 (2 альбома)
(Melodic Rock/AOR/CCM) White Heart - Дискография 1982-2000 (14 альбомов)
(Westcoast/AOR) State Cows - Дискография 2010-2013 (Японские издания, 2 альбома)
(Westcoast/AOR) Dakota - Дискография 1978-2003 (11 CD)
(Westcoast/AOR) Sven Larsson (ex-Street Talk) - Дискография 2010-2012 (Японские издания, 2 альбома)
(Westcoast/AOR) Pages (pre-Mr.Mister) - Дискография 1978-1981 (3 альбома)
(Westcoast/CCM/Progressive Rock) John Elefante (Mastedon, ex-Kansas) - Дискография 1995-2013 (4 альбома)
(Progressive/Classic Rock) December People (Robert Berry) - Дискография 2001-2013 (3 альбома)
(Eclectic Prog) A.C.T - Дискография 1999-2014 (Японские издания, 5 альбомов)
(Crossover Prog) Fish On Friday - Дискография 2010-2012 (2 альбома)
(Classic Rock) Chicago - Дискография 1969-2014 (Японские издания, 39 альбомов)
(Classic Rock) Blackjack - Дискография 1979-1980 (2 альбома)
(Classic Rock) Billy Thorpe - Дискография 1974-2010 (8 альбомов)
(Classic Rock/AOR/Hard Rock/CCM) Petra - Дискография 1974-2010 (26 альбомов)
(Folk Rock) Blackmore's Night - Дискография 1997-2013 (Японские издания, 12 альбомов)
(Rock) Secret Powers - Дискография 2008-2011 (4 альбома)
Зарегистрирован:
  • 04-Окт-14 11:44
  • Скачан: 1,431 раз

Скачать .torrent

19 KB

Тип: обычная
Статус: проверено
Размер: 1.53 GB  ·  magnet59484B7F9096B64C08FCFCF588811021C9BD1EAA
  • Свернуть поддиректории
  • Развернуть
  • Переключить
  • Увел./умен. окно
загружается...

lobashova

Стаж: 10 лет

Сообщений: 6526

flag

lobashova · 04-Окт-14 11:48 (спустя 3 мин., ред. 04-Окт-14 11:48)

Красавец!!! Спасибо Большое! Очень нравятся эти Шведы. Виталий мы дождёмся нового альбома TEN? Когда он уже там выйдет...

19vovan70

Стаж: 9 лет 9 месяцев

Сообщений: 1120

flag

19vovan70 · 04-Окт-14 12:23 (спустя 35 мин.)

Просто супер! Все три альбома более, чем хороши... Но мой любимый - все-таки первый...
kolushew
Виталя, спасибо большое!

frolkinson

Стаж: 8 лет 6 месяцев

Сообщений: 242

flag

frolkinson · 04-Окт-14 12:26 (спустя 2 мин.)

Огромное спасибо! Это просто праздник какой-то! Лучший подарок мне на день учителя!)))

kolushew

Стаж: 9 лет 10 месяцев

Сообщений: 2406

flag

kolushew · 04-Окт-14 12:39 (спустя 12 мин., ред. 04-Окт-14 12:39)

lobashova
19vovan70
frolkinson
Пожалуйста!
Ten в Японии выходит 19 ноября.

triolan64

Top Seed 04* 320r

Стаж: 9 лет 11 месяцев

Сообщений: 1767

flag

triolan64 · 04-Окт-14 13:38 (спустя 58 мин.)

kolushew
Отлично Виталя,спасибо огроменное за этих ребят да и ещё яПона мать..
Rock Forever!

kolushew

Стаж: 9 лет 10 месяцев

Сообщений: 2406

flag

kolushew · 04-Окт-14 14:09 (спустя 31 мин.)

triolan64
aikiron
Пожалуйста!
Этож надо было такую знатную вещь испоганить! http://youtu.be/v5Zy3BUAnOs

swint68

Стаж: 9 лет 3 месяца

Сообщений: 645

flag

swint68 · 04-Окт-14 17:02 (спустя 2 часа 53 мин., ред. 04-Окт-14 17:02)

kolushew
Вы как всегда на высоте!
Лично мне Artwork больше всех нравится, хотя и остальные не уступают.
Спасибо!

kolushew

Стаж: 9 лет 10 месяцев

Сообщений: 2406

flag

kolushew · 04-Окт-14 19:11 (спустя 2 часа 8 мин.)

swint68
<metallium>
Пожалуйста!
Artwork так и остался недосягаемым. In Progress я вообще считаю провальным - несколько однообразный он. Framework конечно порадовал, опять появились вескостовские штучки, что на прошлом альбоме были подзабыты...

Staryk61

Стаж: 9 лет 3 месяца

Сообщений: 217

flag

Staryk61 · 10-Окт-14 12:32 (спустя 5 дней)

Большое спасибо!
Жалко только то что и японцы уже думают что чем громче, тем лучшее.
Силу даёт дизель, бензином моют детали... Кабан и в Африке Кабан

kolushew

Стаж: 9 лет 10 месяцев

Сообщений: 2406

flag

kolushew · 10-Окт-14 16:37 (спустя 4 часа, ред. 10-Окт-14 16:37)

Staryk61
Пожалуйста!
Сейчас все рекорд-лейблы так думают.
 
All rights reserved © 2017-2018
Loading...
Error