[ATV3] Amy Winehouse - BBC One Sessions Live At Porchester Hall [2013, UK, Vocal Jazz, Soul, BDRip, HD (1080p)]

Статистика раздачи
Размер:  4.83 GB   |   Зарегистрирован:  3 года 9 месяцев   |   .torrent скачан:  1,456 раз
Сиды:  1   Личи:  1
Автор
Сообщение

AlexKornMsk

Стаж: 9 лет 10 месяцев

Сообщений: 21

flag

AlexKornMsk · 06-Фев-15 06:57 (3 года 9 месяцев назад)

 

Amy Winehouse / BBC One Sessions Live At Porchester Hall
Год выпуска: 2013
Страна: UK
Издатель (лейбл): © 2013 BBC/MMVII and Universal Island Records, a division of Universal Music Operations Ltd.
Жанр: Vocal Jazz, Soul
Продолжительность: 51 мин.
Описание:
In 2007 Amy was crowned Best British Female at the Brit Awards and this exclusive show which followed her award made it clear why. Set in London’s prestigious Porchester Hall, Amy performed the much loved classics from her debut album ‘Frank’ as well as tracks from her now classic follow up, ‘Back To Black’.


Треклист:
1. Know You Now
2. Tears Dry On Their Own
3. You Know I’m No Good
4. Just Friends
5. He Can Only Hold Her/Doo Wop (That Thing)
6. I Heard Love Is Blind
7. Rehab
8. Take The Box
9. Some Unholy War
10. Back To Black
11. Valerie
12. Addicted
13. Me & Mr Jones
14. Monkey Man

Качество исходника: Blu-Ray 1080p
Качество: BDRip
Тип: HD (1080p)
Формат: M4V
Главы (разбиение по трекам): есть
Видео: 1920x1080 at 29.970 fps, MPEG-4 AVC, ~12600 kbps avg
Аудио#1: English: 48 kHz, ААС, 2/0 (L,R), ~177.00 kbps avg
Аудио#2: English: 48 kHz, AC3, 3/2 (L,C,R,l,r) + LFE ch, ~640 kbps avg

iTunes Meta Tags
Name: Amy Winehouse: BBC One Sessions Live At Porchester Hall
Artist: Amy Winehouse
Genre: Concert Films
Release Date: 2013-04-29
Description: In 2007 Amy was crowned Best British Female at the Brit Awards and this exclusive show which
Long Description: In 2007 Amy was crowned Best British Female at the Brit Awards and this exclusive show which followed her award made it clear why. Set in London’s prestigious Porchester Hall, Amy performed the much loved classics from her debut album ‘Frank’ as well as tracks from her now classic follow up, ‘Back To Black’.
Rating: 0
Cast: Amy Winehouse
Director: Amy Winehouse
Copyright: © 2013 BBC/MMVII and Universal Island Records, a division of Universal Music Operations Ltd.
contentID: 632748376
artistID: 13125609
genreID: 1615
XID: Apple:isrc:GOSTRACKER-2546652
iTunes Country: 143444
MediaInfo
Общее
Полное имя : Amy Winehouse - BBC One Sessions Live At Porchester Hall.m4v
Формат : MPEG-4
Идентификатор кодека : M4V
Размер файла : 4,83 Гбайт
Продолжительность : 51 м.
Режим общего битрейта : Переменный
Общий поток : 13,4 Мбит/сек
Название фильма : Amy Winehouse: BBC One Sessions Live At Porchester Hall
Исполнитель : Amy Winehouse
Жанр : Concert Films
Тип содержимого : Short Film
Описание : In 2007 Amy was crowned Best British Female at the Brit Awards and this exclusive show which
Дата записи : 2013-04-29
Дата кодирования : UTC 2015-02-05 06:05:41
Дата пометки : UTC 2015-02-05 06:29:49
Правообладатель : © 2013 BBC/MMVII and Universal Island Records, a division of Universal Music Operations Ltd.
Обложка : Yes
Рейтинг : None
LongDescription : In 2007 Amy was crowned Best British Female at the Brit Awards and this exclusive show which followed her award made it clear why. Set in London’s prestigious Porchester Hall, Amy performed the much loved classics from her debut album ‘Frank’ as well as tracks from her now classic follow up, ‘Back To Black’.
AppleStoreCountry : United Kingdom
AppleStoreCatalogID : 632748376
AlbumTitleID : 13125609
GenreID : 1615
Vendor : Apple:isrc:GOSTRACKER-2546652
ContentRating : mpaa|Unrated|???|
iTunMOVI : <?xml version="1.0" encoding="UTF-8"?> / <!DOCTYPE plist PUBLIC "-//Apple//DTD PLIST 1.0//EN" "http://www.apple.com/DTDs/PropertyList-1.0.dtd"> / <plist version="1.0"> / <dict> / <key>cast</key> / <array> / <dict> / <key>name</key> / <string>Amy Winehouse</string> / </dict> / </array> / <key>directors</key> / <array> / <dict> / <key>name</key> / <string>Amy Winehouse</string> / </dict> / </array> / </dict> / </plist>
Видео #1
Идентификатор : 1
Формат : AVC
Формат/Информация : Advanced Video Codec
Профиль формата : High@L4.1
Параметр CABAC формата : Да
Параметр ReFrames формата : 4 кадра
Идентификатор кодека : avc1
Идентификатор кодека/Информация : Advanced Video Coding
Продолжительность : 51 м.
Битрейт : 12,6 Мбит/сек
Ширина : 1920 пикселей
Высота : 1080 пикселей
Соотношение сторон : 16:9
Режим частоты кадров : Переменный
Частота кадров : 29,970 кадров/сек
Минимальная частота кадров : 29,412 кадров/сек
Максимальная частота кадров : 30,303 кадров/сек
Цветовое пространство : YUV
Субдискретизация насыщенности : 4:2:0
Битовая глубина : 8 бит
Тип развёртки : Прогрессивная
Бит/(Пиксели*Кадры) : 0.203
Размер потока : 4,54 Гбайт (94%)
Библиотека кодирования : x264 core 142 r2479 dd79a61
Настройки программы : cabac=1 / ref=4 / deblock=1:0:0 / analyse=0x3:0x133 / me=umh / subme=10 / psy=1 / psy_rd=1.00:0.00 / mixed_ref=0 / me_range=32 / chroma_me=1 / trellis=2 / 8x8dct=1 / cqm=0 / deadzone=21,11 / fast_pskip=1 / chroma_qp_offset=-2 / threads=6 / lookahead_threads=1 / sliced_threads=0 / nr=0 / decimate=1 / interlaced=0 / bluray_compat=0 / constrained_intra=0 / bframes=16 / b_pyramid=2 / b_adapt=2 / b_bias=0 / direct=3 / weightb=1 / open_gop=0 / weightp=1 / keyint=300 / keyint_min=30 / scenecut=40 / intra_refresh=0 / rc_lookahead=10 / rc=2pass / mbtree=1 / bitrate=12600 / ratetol=1.0 / qcomp=0.60 / qpmin=0 / qpmax=69 / qpstep=4 / cplxblur=20.0 / qblur=0.5 / vbv_maxrate=20000 / vbv_bufsize=25000 / nal_hrd=none / filler=0 / ip_ratio=1.40 / aq=1:1.00
Дата кодирования : UTC 2015-02-05 06:05:41
Дата пометки : UTC 2015-02-05 06:08:58
Основные цвета : BT.709
Характеристики трансфера : BT.709
Коэффициенты матрицы : BT.709
Видео #2
Идентификатор : 5
Формат : JPEG
Идентификатор кодека : jpeg
Продолжительность : 51 м.
Вид битрейта : Переменный
Битрейт : 2222 бит/сек
Ширина : 640 пикселей
Высота : 360 пикселей
Соотношение сторон : 16:9
Режим частоты кадров : Переменный
Частота кадров : 0,005 кадр/сек
Минимальная частота кадров : 0,003 кадр/сек
Максимальная частота кадров : 0,006 кадр/сек
Цветовое пространство : YUV
Субдискретизация насыщенности : 4:2:0
Битовая глубина : 8 бит
Метод сжатия : С потерями
Бит/(Пиксели*Кадры) : 1.929
Размер потока : 759 Кбайт (0%)
Дата кодирования : UTC 2015-02-05 06:29:48
Дата пометки : UTC 2015-02-05 06:29:49
Аудио #1
Идентификатор : 2
Формат : AAC
Формат/Информация : Advanced Audio Codec
Профиль формата : LC
Идентификатор кодека : 40
Продолжительность : 51 м.
Продолжительность оригинала : 51 м.
Вид битрейта : Переменный
Номинальный битрейт : 177 Кбит/сек
Максимальный битрейт : 265 Кбит/сек
Каналы : 2 канала
Расположение каналов : Front: L R
Частота : 48,0 КГц
Метод сжатия : С потерями
Размер потока оригинала : 65,3 Мбайт (1%)
Язык : English
Дата кодирования : UTC 2015-02-05 06:05:41
Дата пометки : UTC 2015-02-05 06:08:58
Аудио #2
Идентификатор : 3
Формат : AC-3
Формат/Информация : Audio Coding 3
Расширение режима : CM (complete main)
Параметр Endianness формата : Big
Идентификатор кодека : ac-3
Продолжительность : 51 м.
Продолжительность оригинала : 51 м.
Вид битрейта : Постоянный
Битрейт : 640 Кбит/сек
Каналы : 6 каналов
Расположение каналов : Front: L C R, Side: L R, LFE
Частота : 48,0 КГц
Битовая глубина : 16 бит
Метод сжатия : С потерями
Размер потока : 236 Мбайт (5%)
Размер потока оригинала : 236 Мбайт (5%)
Язык : English
Дата кодирования : UTC 2015-02-05 06:05:41
Дата пометки : UTC 2015-02-05 06:08:58
Меню #1
00:00:00.000 : : Know You Now
00:03:16.196 : : Tears Dry On Their Own
00:07:07.693 : : You Know I'm No Good
00:11:25.918 : : Just Friends
00:15:11.911 : : He Can Only Hold Her/Doo Wop (That Thing)
00:18:26.605 : : I Heard Love Is Blind
00:21:45.637 : : Rehab
00:26:38.797 : : Take The Box
00:30:32.831 : : Some Unholy War
00:34:43.881 : : Back To Black
00:38:37.248 : : Valerie
00:42:15.266 : : Addicted
00:45:15.979 : : Me & Mr Jones
00:48:17.761 : : Monkey Man
Меню #2
Идентификатор : 4
Идентификатор кодека : text
Продолжительность : 51 м.
Язык : English
Дата кодирования : UTC 2015-02-05 06:29:34
Дата пометки : UTC 2015-02-05 06:29:34
00:00:00.000 : : Know You Now
00:03:16.196 : : Tears Dry On Their Own
00:07:07.693 : : You Know I'm No Good
00:11:25.918 : : Just Friends
00:15:11.911 : : He Can Only Hold Her/Doo Wop (That Thing)
00:18:26.605 : : I Heard Love Is Blind
00:21:45.637 : : Rehab
00:26:38.797 : : Take The Box
00:30:32.831 : : Some Unholy War
00:34:43.881 : : Back To Black
00:38:37.248 : : Valerie
00:42:15.266 : : Addicted
00:45:15.979 : : Me & Mr Jones
00:48:17.761 : : Monkey Man
Вид битрейта : VBR
x264 лог
x264 [info]: frame I:450   Avg QP:19.70  size:244228
x264 [info]: frame P:17919 Avg QP:22.32 size: 96925
x264 [info]: frame B:74380 Avg QP:24.51 size: 40643
x264 [info]: consecutive B-frames: 0.9% 0.7% 3.5% 14.4% 19.5% 52.3% 6.7% 0.7% 0.4% 0.1% 0.1% 0.1% 0.0% 0.0% 0.0% 0.0% 0.6%
x264 [info]: mb I I16..4: 14.1% 74.0% 11.8%
x264 [info]: mb P I16..4: 4.7% 15.2% 2.5% P16..4: 53.5% 10.5% 6.5% 0.2% 0.0% skip: 6.7%
x264 [info]: mb B I16..4: 0.6% 1.9% 0.3% B16..8: 42.8% 5.8% 1.7% direct:12.3% skip:34.6% L0:45.5% L1:47.6% BI: 6.9%
x264 [info]: 8x8 transform intra:69.0% inter:75.5%
x264 [info]: direct mvs spatial:99.5% temporal:0.5%
x264 [info]: coded y,uvDC,uvAC intra: 70.9% 74.1% 39.3% inter: 31.0% 35.7% 5.7%
x264 [info]: i16 v,h,dc,p: 37% 41% 7% 14%
x264 [info]: i8 v,h,dc,ddl,ddr,vr,hd,vl,hu: 9% 5% 10% 11% 15% 15% 13% 11% 11%
x264 [info]: i4 v,h,dc,ddl,ddr,vr,hd,vl,hu: 4% 60% 2% 4% 5% 5% 6% 4% 9%
x264 [info]: i8c dc,h,v,p: 27% 32% 22% 19%
x264 [info]: Weighted P-Frames: Y:7.6% UV:5.8%
x264 [info]: ref P L0: 57.9% 27.0% 14.7% 0.4%
x264 [info]: ref B L0: 87.4% 10.3% 2.3%
x264 [info]: ref B L1: 92.9% 7.1%
x264 [info]: kb/s:12588.42
Скриншоты



Релиз подготовлен для просмотра на Apple TV, iPad, iPhone, iPod Touch.
Для просмотра данного релиза на компьютере с ОС Windows рекомендуется использовать VLC media player
Зарегистрирован:
  • 06-Фев-15 06:57
  • Скачан: 1,456 раз

Скачать .torrent

49 KB

Тип: обычная
Статус: проверено
Размер: 4.83 GB  ·  magnetE15E0FBFD125743E2B3516C463256CE1594E03A6
  • Свернуть поддиректории
  • Развернуть
  • Переключить
  • Увел./умен. окно
загружается...
 
All rights reserved © 2017-2018
Loading...
Error