јмазони€: »нструкци€ по выживанию / Amazonia (“ьерри –агоберт) [2013, ‘ранци€, Ѕразили€, приключени€, семейный, WEB-DL HD (720p)], DUB (rus, ita, eng))

—татистика раздачи
–азмер:  3.2 GB   |   «арегистрирован:  3 года 9 мес€цев   |   .torrent скачан:  2,150 раз
—иды:  1
јвтор
—ообщение

yv_apple

Moderator

—таж: 8 лет 5 мес€цев

—ообщений: 5559

flag

yv_apple · 05-‘ев-15 16:56 (3 года 9 мес€цев назад, ред. 05-‘ев-15 17:26)

 

‘ильмы
јмазони€: »нструкци€ по выживанию / Amazonia
Ђƒжунгли зовутї
6.714 / 10

√од выпуска: 2013
—трана: ‘ранци€, Ѕразили€
∆анр: приключени€, семейный
ѕродолжительность: 82 мин.
ѕеревод: ѕрофессиональный дублированный перевод
ќригинальна€ аудиодорожка: ≈сть
—убтитры: Ќет
–ежиссЄр: “ьерри –агоберт
—ценарий: ƒжохэнн Ѕернард, Ћуис Ѕолоньези, Ћуи-ѕоль ƒесанж
ѕродюсер: Ћорен Ѕожар,  айю ∆уллане, ‘абиану ∆уллане
ќператор: √уставо ’адба, ћанюэль “еран
 омпозитор: Ѕруно  уле
ћонтаж: “ьерри –агоберт, Ќадин ¬ердье
—боры в –оссии: $252 909
ћирова€ премьера: 7 сент€бр€ 2013
ѕремьера (–‘): 6 но€бр€ 2014, Ћюксор
–елиз на DVD: 18 декабр€ 2014, CD Land
ќписание:  артина про домашнего капуцина, который после авиакатастрофы попадает в свои естественные, природные, но чуждые ему услови€.
 ачество исходника: WEB-DL 720p (HDClub)
 ачество: WEB-DL
“ип: 720p
 онтейнер: m4v
¬идео: 1280x696 at 24.000 fps, MPEG-4 AVC, 4000 kbps avg
јудио#1: Russian: 48 kHz, јј—, 2/0 (L,R), ~160.00 kbps avg |ƒубл€ж, iTunes Russia|
јудио#2: Italian: 48 kHz, јј—, 2/0 (L,R), ~160.00 kbps avg |ƒубл€ж, Blu-ray [2D/3D] ITA 1080p AVC|
јудио#3: English: 48 kHz, јј—, 2/0 (L,R), ~160.00 kbps avg |ƒубл€ж, Blu-ray [2D/3D] ITA 1080p AVC|
јудио#4: Russian: 48 kHz, AC3, 3/2 (L,C,R,l,r) + LFE ch, ~384.00 kbps avg |ƒубл€ж, iTunes Russia|
јудио#5: Russian: 48 kHz, AC3, 3/2 (L,C,R,l,r) + LFE ch, ~640.00 kbps avg |ƒубл€ж, Blu-ray [2D/3D] ITA 1080p AVC|
iTunes Meta Tags for country ru
 од:
Name: јмазони€: »нструкци€ по выживанию
Artist: “ьерри –агоберт
Genre: Kids & Family
Release Date: 2013-09-07T08:00:00Z
Description:  артина про домашнего капуцина, который после авиакатастрофы попадает в свои естественные, природные, но чуждые ему услови€.
Long Description:  артина про домашнего капуцина, который после авиакатастрофы попадает в свои естественные, природные, но чуждые ему услови€.
Rating: 0+
Studio: Biloba
Director: “ьерри –агоберт
Producers: Ћорен Ѕожар,  айю ∆уллане, ‘абиану ∆уллане
Screenwriters: ƒжохэнн Ѕернард, Ћуис Ѕолоньези, Ћуи-ѕоль ƒесанж
Copyright: © 2013 BILOBA Films, GULLANE, GEDEON Progtammes, France2 Cinema, GLOBO Filmes, IMOVISION, LE PACTE
contentID: 935856369
XID: Apple:vendor_id:2013-549676
Sort Name: јмазони€: »нструкци€ по выживанию
iTunes Meta Tags for country fr
 од:
Name: Amazonia
Artist: Thierry Ragobert
Genre: Documentary
Release Date: 2013-09-07T08:00:00Z
Description:  артина про домашнего капуцина, который после авиакатастрофы попадает в свои естественные, природные, но чуждые ему услови€.
Long Description:  артина про домашнего капуцина, который после авиакатастрофы попадает в свои естественные, природные, но чуждые ему услови€.
Rating: Tout public
Studio: BILOBA FILMS - GULLANE
Director: “ьерри –агоберт
Producers: Ћорен Ѕожар,  айю ∆уллане, ‘абиану ∆уллане
Screenwriters: ƒжохэнн Ѕернард, Ћуис Ѕолоньези, Ћуи-ѕоль ƒесанж
contentID: 828679165
XID: Apple:vendor_id:2013-549676
Sort Name: Amazonia
MediaInfo 720p Release
 од:
General
Complete name : Amazonia (HD).m4v
Format : MPEG-4
Codec ID : M4V
File size : 3.20 GiB
Duration : 1h 23mn
Overall bit rate mode : Variable
Overall bit rate : 5 500 Kbps
Movie name : Amazonia
Performer : Thierry Ragobert
Genre : Documentary
ContentType : Short Film
Description :  артина про домашнего капуцина, который после авиакатастрофы попадает в свои естественные, природные, но чуждые ему услови€.
Recorded date : UTC 2013-09-07 08:00:00
Encoded date : UTC 2015-02-05 10:42:18
Tagged date : UTC 2015-02-05 11:19:39
Cover : Yes
Rating : None
Title/Sort : Amazonia
LongDescription :  артина про домашнего капуцина, который после авиакатастрофы попадает в свои естественные, природные, но чуждые ему услови€.
HDVideo : Yes
AppleStoreCatalogID : 828679165
Vendor : Apple:vendor_id:2013-549676
ContentRating : fr-movie|Tout public|000|
iTunMOVI : <?xml version="1.0" encoding="UTF-8"?> / <!DOCTYPE plist PUBLIC "-//Apple//DTD PLIST 1.0//EN" "http://www.apple.com/DTDs/PropertyList-1.0.dtd"> / <plist version="1.0"> / <dict> /  <key>directors</key> /  <array> /   <dict> /    <key>name</key> /    <string>“ьерри –агоберт</string> /   </dict> /  </array> /  <key>producers</key> /  <array> /   <dict> /    <key>name</key> /    <string>Ћорен Ѕожар</string> /   </dict> /   <dict> /    <key>name</key> /    <string> айю ∆уллане</string> /   </dict> /   <dict> /    <key>name</key> /    <string>‘абиану ∆уллане</string> /   </dict> /  </array> /  <key>screenwriters</key> /  <array> /   <dict> /    <key>name</key> /    <string>ƒжохэнн Ѕернард</string> /   </dict> /   <dict> /    <key>name</key> /    <string>Ћуис Ѕолоньези</string> /   </dict> /   <dict> /    <key>name</key> /    <string>Ћуи-ѕоль ƒесанж</string> /   </dict> /  </array> /  <key>studio</key> /  <string>BILOBA FILMS - GULLANE</string> / </dict> / </plist>
Video #1
ID : 1
Format : AVC
Format/Info : Advanced Video Codec
Format profile : High@L3.1
Format settings, CABAC : No
Format settings, ReFrames : 2 frames
Codec ID : avc1
Codec ID/Info : Advanced Video Coding
Duration : 1h 22mn
Bit rate : 3 997 Kbps
Width : 1 280 pixels
Height : 696 pixels
Display aspect ratio : 1.85:1
Frame rate mode : Variable
Frame rate : 24.000 fps
Minimum frame rate : 23.810 fps
Maximum frame rate : 24.390 fps
Color space : YUV
Chroma subsampling : 4:2:0
Bit depth : 8 bits
Scan type : Progressive
Bits/(Pixel*Frame) : 0.187
Stream size : 2.31 GiB (72%)
Language : French
Encoded date : UTC 2015-02-05 10:42:18
Tagged date : UTC 2015-02-05 10:52:16
Color primaries : BT.709
Transfer characteristics : BT.709
Matrix coefficients : BT.709
Video #2
ID : 8
Format : JPEG
Codec ID : jpeg
Duration : 1h 22mn
Bit rate mode : Variable
Bit rate : 1 574 bps
Width : 640 pixels
Height : 348 pixels
Display aspect ratio : 1.85:1
Frame rate mode : Variable
Frame rate : 0.003 fps
Minimum frame rate : 0.002 fps
Maximum frame rate : 0.004 fps
Color space : YUV
Chroma subsampling : 4:2:0
Bit depth : 8 bits
Compression mode : Lossy
Bits/(Pixel*Frame) : 2.356
Stream size : 1.00 MiB (0%)
Language : French
Encoded date : UTC 2015-02-05 10:52:21
Tagged date : UTC 2015-02-05 10:52:22
Audio #1
ID : 2
Format : AAC
Format/Info : Advanced Audio Codec
Format profile : LC
Codec ID : 40
Duration : 1h 23mn
Bit rate mode : Variable
Bit rate : 165 Kbps
Maximum bit rate : 238 Kbps
Channel(s) : 2 channels
Channel positions : Front: L R
Sampling rate : 48.0 KHz
Compression mode : Lossy
Stream size : 98.1 MiB (3%)
Language : Russian
Encoded date : UTC 2015-02-05 10:42:18
Tagged date : UTC 2015-02-05 10:48:46
Audio #2
ID : 3
Format : AAC
Format/Info : Advanced Audio Codec
Format profile : LC
Codec ID : 40
Duration : 1h 23mn
Bit rate mode : Variable
Bit rate : 166 Kbps
Maximum bit rate : 230 Kbps
Channel(s) : 2 channels
Channel positions : Front: L R
Sampling rate : 48.0 KHz
Compression mode : Lossy
Stream size : 98.5 MiB (3%)
Language : Italian
Encoded date : UTC 2015-02-05 10:42:18
Tagged date : UTC 2015-02-05 10:48:46
Audio #3
ID : 4
Format : AAC
Format/Info : Advanced Audio Codec
Format profile : LC
Codec ID : 40
Duration : 1h 23mn
Bit rate mode : Variable
Bit rate : 164 Kbps
Maximum bit rate : 233 Kbps
Channel(s) : 2 channels
Channel positions : Front: L R
Sampling rate : 48.0 KHz
Compression mode : Lossy
Stream size : 97.7 MiB (3%)
Language : English
Encoded date : UTC 2015-02-05 10:42:18
Tagged date : UTC 2015-02-05 10:48:45
Audio #4
ID : 5
Format : AC-3
Format/Info : Audio Coding 3
Mode extension : CM (complete main)
Format settings, Endianness : Big
Codec ID : ac-3
Duration : 1h 22mn
Bit rate mode : Constant
Bit rate : 384 Kbps
Channel(s) : 6 channels
Channel positions : Front: L C R, Side: L R, LFE
Sampling rate : 48.0 KHz
Bit depth : 16 bits
Compression mode : Lossy
Stream size : 227 MiB (7%)
Language : Russian
Encoded date : UTC 2015-02-05 10:42:18
Tagged date : UTC 2015-02-05 10:52:16
Audio #5
ID : 6
Format : AC-3
Format/Info : Audio Coding 3
Mode extension : CM (complete main)
Format settings, Endianness : Big
Codec ID : ac-3
Duration : 1h 22mn
Bit rate mode : Constant
Bit rate : 640 Kbps
Channel(s) : 6 channels
Channel positions : Front: L C R, Side: L R, LFE
Sampling rate : 48.0 KHz
Bit depth : 16 bits
Compression mode : Lossy
Stream size : 378 MiB (12%)
Language : English
Encoded date : UTC 2015-02-05 10:42:18
Tagged date : UTC 2015-02-05 10:42:43
Menu #1
00:00:00.000 : 1
00:05:16.000 : 2
00:10:30.000 : 3
00:15:00.000 : 4
00:20:15.000 : 5
00:25:19.000 : 6
00:29:45.000 : 7
00:35:52.000 : 8
00:40:19.000 : 9
00:44:48.000 : 10
00:49:57.000 : 11
00:55:11.000 : 12
01:00:14.000 : 13
01:04:46.000 : 14
01:09:30.000 : 15
01:14:37.000 : 16
Menu #2
ID : 7
Codec ID : text
Duration : 1h 22mn
Language : French
Encoded date : UTC 2015-02-05 10:52:16
Tagged date : UTC 2015-02-05 10:52:16
00:00:00.000 : 1
00:05:16.000 : 2
00:10:30.000 : 3
00:15:00.000 : 4
00:20:15.000 : 5
00:25:19.000 : 6
00:29:45.000 : 7
00:35:52.000 : 8
00:40:19.000 : 9
00:44:48.000 : 10
00:49:57.000 : 11
00:55:11.000 : 12
01:00:14.000 : 13
01:04:46.000 : 14
01:09:30.000 : 15
01:14:37.000 : 16
Bit rate mode : VBR
—криншоты 720p Release
÷итата:
  • —охранены оригинальные главы.
  • »таль€нска€ и јнглийска€ дороги вз€ты с издани€ јмазони€: »нструкци€ по выживанию / Amazonia (2013) Blu-ray [2D/3D] ITA 1080p AVC DTS-HD 5.1-CtrlHD и аккуратно подогнаны под WEB-DL.



–елиз подготовлен дл€ просмотра на Apple TV, iPad, iPhone, iPod Touch.
ƒл€ просмотра данного релиза на компьютере с ќ— Windows рекомендуетс€ использовать VLC media player
«арегистрирован:
  • 05-‘ев-15 16:59
  • —качан: 2,150 раз

—качать .torrent

16 KB

“ип: обычна€
—татус: проверено
–азмер: 3.2 GB  ·  magnetF18A74C7578299AAC2B6126DBC7E98A307ED6F91
  • —вернуть поддиректории
  • –азвернуть
  • ѕереключить
  • ”вел./умен. окно
загружаетс€...

ovsyannikov.ivan

VIP («аслуженный)

—таж: 8 лет 9 мес€цев

—ообщений: 1921

flag

ovsyannikov.ivan · 05-‘ев-15 17:07 (спуст€ 11 мин.)

—”ѕ≈–! —пасибо, ¬адим!

¬ал-лер

—таж: 6 лет 5 мес€цев

—ообщений: 1

flag

¬ал-лер · 06-‘ев-15 11:49 (спуст€ 18 часов, ред. 06-‘ев-15 17:48)

—пасибо!ќсобенно за перевод “имура –одригеза...порадовал фильм
 
All rights reserved © 2017-2018
Loading...
Error