[ATV3] Планета-океан / Planet Ocean (Мишель Пити / Michael Pitiot ) [2012, Франция, документальный, BDRip, HD (1080p)] DUB + VO + sub (rus, eng)

Статистика раздачи
Размер:  9.64 GB   |   Зарегистрирован:  4 года 11 месяцев   |   .torrent скачан:  1,665 раз
Сиды:  1
Автор
Сообщение

pk5360114

Стаж: 9 лет 9 месяцев

Сообщений: 4057

flag

pk5360114 · 19-Дек-13 14:44 (4 года 11 месяцев назад, ред. 19-Дек-13 14:45)

 

Планета-океан / Planet Ocean
-
8.381 / 10 7.10 / 10

Год выпуска: 2012
Страна: Франция
Жанр: документальный
Продолжительность: 01:28:00
Перевод: Профессиональный (дублированный), Авторский (одноголосый закадровый) (Курдов)
Оригинальная аудиодорожка: Нет
Субтитры: Русские, Английские
Режиссёр: Мишель Пити
Сценарий: Люси Эллвуд, Мишель Пити
Продюсер: Ян Артус Бертранд, Николя Копперманн, Жан-Ив Робен
Оператор: Энди Касагранде
Композитор: Арман Амар
В ролях: Джош Дюамель
Бюджет: €1 300 000
Мировая премьера: 19 июня 2012
Релиз на DVD: 6 июня 2013, «Двадцатый Век Фокс СНГ»
Релиз на Blu-Ray: 6 июня 2013, «Двадцатый Век Фокс СНГ»
Описание: Фильм призван объяснить некоторые из величайших природных загадок нашей планеты и ещё ярче показать важность того, чтобы человечество училось жить в гармонии с океаном.
Качество исходника: BDRemux
Качество: BDRip
Тип: HD (1080p)
Контейнер: M4V
Видео: H.264, 1920x1072, 16:9, 14.0 Mbps, 23.976 fps
Аудио 1: Русский/Профессиональный (дублированный) , AAC / 2.0 / 157 Kbps / 48.0 KHz
Аудио 2: Русский/Авторский (одноголосый закадровый) (Курдов), AAC / 2.0 / 157 Kbps / 48.0 KHz
Аудио 3: Русский/Профессиональный (дублированный) , AC-3 / 5.1 / 640 Kbps / 48.0 KHz
Аудио 4: Русский/Авторский (одноголосый закадровый) (Курдов), AC-3 / 5.1 / 640 Kbps / 48.0 KHz
Субтитры 1: Русские полные
Субтитры 2: Английские полные


iTunes Meta Tags
Код:
Sort Name: Planet Ocean (2012)
XID: Apple:vendor_id:2012-690136
contentID: 617208082
Copyright: © 2013 Universal Studios. All Rights Reserved.
Screenwriters: Люси Эллвуд, Мишель Пити
Producers: Ян Артус Бертранд, Николя Копперманн, Жан-Ив Робен
Director: Ян Артус Бертранд, Мишель Пити
Cast: Джош Дюамель
Rating: 1
Long Description:  Фильм призван объяснить некоторые из величайших природных загадок нашей планеты и ещё ярче показать важность того, чтобы человечество училось жить в гармонии с океаном.
Description:  Фильм призван объяснить некоторые из величайших природных загадок нашей планеты и ещё ярче показать важность того, чтобы человечество училось жить в гармонии с океаном.
Release Date: 2012-06-19T16:00:00Z
Genre: Documentary
Artist: Yann Arthus-Bertrand & Michael Pitiot
Name: Planet Ocean (2012)
MediaInfo
Код:
General
Complete name                            : /Users/imac/HandBrake/Planet Ocean (2012) (1080p HD).m4v
Format                                   : MPEG-4
Codec ID                                 : M4V
File size                                : 9.64 GiB
Duration                                 : 1h 28mn
Overall bit rate mode                    : Variable
Overall bit rate                         : 15.5 Mbps
Movie name                               : Planet Ocean (2012)
Performer                                : Yann Arthus-Bertrand & Michael Pitiot
Genre                                    : Documentary
Recorded date                            : UTC 2012-06-19 16:00:00
Encoded date                             : UTC 2013-12-19 11:09:11
Tagged date                              : UTC 2013-12-19 11:20:24
Copyright                                : © 2013 Universal Studios. All Rights Reserved.
Cover                                    : Yes
sonm                                     : Planet Ocean (2012)
desc                                     :  Фильм призван объяснить некоторые из величайших природных загадок нашей планеты и ещё ярче показать важность того, чтобы человечество училось жить в гармонии с океаном.
ldes                                     :  Фильм призван объяснить некоторые из величайших природных загадок нашей планеты и ещё ярче показать важность того, чтобы человечество училось жить в гармонии с океаном.
hdvd                                     : 2
stik                                     : 9
rtng                                     : 0
cnID                                     : 617208082
xid                                      : Apple:vendor_id:2012-690136
iTunEXTC                                 : mpaa|NR|000|
iTunMOVI                                 : <?xml version=\"1.0\" encoding=\"UTF-8\"?> / <!DOCTYPE plist PUBLIC \"-//Apple//DTD PLIST 1.0//EN\" \"http://www.apple.com/DTDs/PropertyList-1.0.dtd\"> / <plist version=\"1.0\"> / <dict> /  <key>cast</key> /  <array> /   <dict> /    <key>name</key> /    <string>Джош Дюамель</string> /   </dict> /  </array> /  <key>directors</key> /  <array> /   <dict> /    <key>name</key> /    <string>Ян Артус Бертранд</string> /   </dict> /   <dict> /    <key>name</key> /    <string>Мишель Пити</string> /   </dict> /  </array> /  <key>producers</key> /  <array> /   <dict> /    <key>name</key> /    <string>Ян Артус Бертранд</string> /   </dict> /   <dict> /    <key>name</key> /    <string>Николя Копперманн</string> /   </dict> /   <dict> /    <key>name</key> /    <string>Жан-Ив Робен</string> /   </dict> /  </array> /  <key>screenwriters</key> /  <array> /   <dict> /    <key>name</key> /    <string>Люси Эллвуд</string> /   </dict> /   <dict> /    <key>name</key> /    <string>Мишель Пити</string> /   </dict> /  </array> / </dict> / </plist>
Video #1
ID                                       : 1
Format                                   : AVC
Format/Info                              : Advanced Video Codec
Format profile                           : High@L4.0
Format settings, CABAC                   : Yes
Format settings, ReFrames                : 4 frames
Codec ID                                 : avc1
Codec ID/Info                            : Advanced Video Coding
Duration                                 : 1h 28mn
Bit rate mode                            : Variable
Bit rate                                 : 14.0 Mbps
Width                                    : 1 920 pixels
Height                                   : 1 072 pixels
Display aspect ratio                     : 16:9
Frame rate mode                          : Variable
Frame rate                               : 23.976 fps
Minimum frame rate                       : 23.974 fps
Maximum frame rate                       : 23.981 fps
Color space                              : YUV
Chroma subsampling                       : 4:2:0
Bit depth                                : 8 bits
Scan type                                : Progressive
Bits/(Pixel*Frame)                       : 0.284
Stream size                              : 8.64 GiB (90%)
Writing library                          : x264 core 130 r2273 b3065e6
Encoding settings                        : cabac=1 / ref=4 / deblock=1:0:0 / analyse=0x3:0x133 / me=umh / subme=10 / psy=1 / psy_rd=1.00:0.00 / mixed_ref=1 / me_range=32 / chroma_me=1 / trellis=2 / 8x8dct=1 / cqm=0 / deadzone=21,11 / fast_pskip=1 / chroma_qp_offset=-2 / threads=12 / lookahead_threads=1 / sliced_threads=0 / nr=0 / decimate=1 / interlaced=0 / bluray_compat=0 / constrained_intra=0 / bframes=4 / b_pyramid=2 / b_adapt=2 / b_bias=0 / direct=3 / weightb=1 / open_gop=0 / weightp=2 / keyint=240 / keyint_min=24 / scenecut=40 / intra_refresh=0 / rc_lookahead=40 / rc=2pass / mbtree=0 / bitrate=14000 / ratetol=1.0 / qcomp=0.60 / qpmin=0 / qpmax=69 / qpstep=4 / cplxblur=20.0 / qblur=0.5 / vbv_maxrate=25000 / vbv_bufsize=25000 / nal_hrd=none / ip_ratio=1.40 / pb_ratio=1.30 / aq=1:1.00
Language                                 : English
Encoded date                             : UTC 2013-12-19 11:09:11
Tagged date                              : UTC 2013-12-19 11:13:31
Color primaries                          : BT.709-5, BT.1361, IEC 61966-2-4, SMPTE RP177
Transfer characteristics                 : BT.709-5, BT.1361
Matrix coefficients                      : BT.709-5, BT.1361, IEC 61966-2-4 709, SMPTE RP177
Video #2
ID                                       : 9
Format                                   : JPEG
Codec ID                                 : jpeg
Duration                                 : 1h 28mn
Bit rate mode                            : Variable
Bit rate                                 : 943 bps
Width                                    : 640 pixels
Height                                   : 357 pixels
Display aspect ratio                     : 16:9
Frame rate mode                          : Variable
Frame rate                               : 0.002 fps
Minimum frame rate                       : 0.001 fps
Maximum frame rate                       : 0.003 fps
Color space                              : YUV
Chroma subsampling                       : 4:2:0
Bit depth                                : 8 bits
Compression mode                         : Lossy
Bits/(Pixel*Frame)                       : 2.064
Stream size                              : 576 KiB (0%)
Language                                 : English
Encoded date                             : UTC 2013-12-19 11:13:39
Tagged date                              : UTC 2013-12-19 11:13:40
Audio #1
ID                                       : 2
Format                                   : AAC
Format/Info                              : Advanced Audio Codec
Format profile                           : LC
Codec ID                                 : 40
Duration                                 : 1h 28mn
Bit rate mode                            : Variable
Bit rate                                 : 157 Kbps
Maximum bit rate                         : 231 Kbps
Channel(s)                               : 2 channels
Channel positions                        : Front: L R
Sampling rate                            : 48.0 KHz
Compression mode                         : Lossy
Stream size                              : 99.9 MiB (1%)
Language                                 : Russian
Encoded date                             : UTC 2013-12-19 11:09:11
Tagged date                              : UTC 2013-12-19 11:11:18
Audio #2
ID                                       : 3
Format                                   : AAC
Format/Info                              : Advanced Audio Codec
Format profile                           : LC
Codec ID                                 : 40
Duration                                 : 1h 28mn
Bit rate mode                            : Variable
Bit rate                                 : 157 Kbps
Maximum bit rate                         : 235 Kbps
Channel(s)                               : 2 channels
Channel positions                        : Front: L R
Sampling rate                            : 48.0 KHz
Compression mode                         : Lossy
Stream size                              : 99.7 MiB (1%)
Language                                 : Russian
Encoded date                             : UTC 2013-12-19 11:09:11
Tagged date                              : UTC 2013-12-19 11:11:19
Audio #3
ID                                       : 4
Format                                   : AC-3
Format/Info                              : Audio Coding 3
Mode extension                           : CM (complete main)
Format settings, Endianness              : Big
Codec ID                                 : ac-3
Duration                                 : 1h 28mn
Bit rate mode                            : Constant
Bit rate                                 : 640 Kbps
Channel(s)                               : 6 channels
Channel positions                        : Front: L C R, Side: L R, LFE
Sampling rate                            : 48.0 KHz
Bit depth                                : 16 bits
Compression mode                         : Lossy
Stream size                              : 407 MiB (4%)
Language                                 : Russian
Encoded date                             : UTC 2013-12-19 11:09:11
Tagged date                              : UTC 2013-12-19 11:09:49
Audio #4
ID                                       : 5
Format                                   : AC-3
Format/Info                              : Audio Coding 3
Mode extension                           : CM (complete main)
Format settings, Endianness              : Big
Codec ID                                 : ac-3
Duration                                 : 1h 28mn
Bit rate mode                            : Constant
Bit rate                                 : 640 Kbps
Channel(s)                               : 6 channels
Channel positions                        : Front: L C R, Side: L R, LFE
Sampling rate                            : 48.0 KHz
Bit depth                                : 16 bits
Compression mode                         : Lossy
Stream size                              : 407 MiB (4%)
Language                                 : Russian
Encoded date                             : UTC 2013-12-19 11:09:11
Tagged date                              : UTC 2013-12-19 11:09:49
Text #1
ID                                       : 6
Format                                   : Timed text
Muxing mode                              : sbtl
Codec ID                                 : tx3g
Duration                                 : 1h 25mn
Bit rate mode                            : Variable
Bit rate                                 : 110 bps
Stream size                              : 68.8 KiB (0%)
Language                                 : Russian
Encoded date                             : UTC 2013-12-19 11:09:11
Tagged date                              : UTC 2013-12-19 11:09:12
Text #2
ID                                       : 7
Format                                   : Timed text
Muxing mode                              : sbtl
Codec ID                                 : tx3g
Duration                                 : 1h 26mn
Bit rate mode                            : Variable
Bit rate                                 : 63 bps
Stream size                              : 40.0 KiB (0%)
Language                                 : English
Encoded date                             : UTC 2013-12-19 11:09:11
Tagged date                              : UTC 2013-12-19 11:09:12
Text #3
ID                                       : 8
Format                                   : Apple text
Codec ID                                 : text
Duration                                 : 1h 28mn
Bit rate mode                            : Variable
Bit rate                                 : 0 bps
Stream size                              : 231 Bytes (0%)
Language                                 : English
Encoded date                             : UTC 2013-12-19 11:13:31
Tagged date                              : UTC 2013-12-19 11:13:31
Menu
00:00:00.000                             : Chapter 1
00:09:23.437                             : Chapter 2
00:18:17.136                             : Chapter 3
00:28:51.603                             : Chapter 4
00:40:05.276                             : Chapter 5
00:51:37.926                             : Chapter 6
00:56:36.182                             : Chapter 7
01:06:05.000                             : Chapter 8
01:16:56.567                             : Chapter 9
01:23:15.236                             : Chapter 10
x264 лог
Код:
x264 [info]: frame I:677   Avg QP:17.31  size:253798  PSNR Mean Y:46.49 U:49.98 V:50.60 Avg:47.36 Global:45.87
x264 [info]: frame P:33286 Avg QP:19.38  size:121148  PSNR Mean Y:44.55 U:48.07 V:48.67 Avg:45.39 Global:43.59
x264 [info]: frame B:93831 Avg QP:21.66  size: 54102  PSNR Mean Y:43.08 U:47.13 V:47.87 Avg:44.01 Global:42.15
x264 [info]: consecutive B-frames:  1.6%  2.8% 19.9% 35.6% 40.0%
x264 [info]: mb I  I16..4:  8.5% 77.2% 14.3%
x264 [info]: mb P  I16..4:  2.7% 17.1%  2.2%  P16..4: 36.9% 23.1% 11.8%  0.4%  0.1%    skip: 5.8%
x264 [info]: mb B  I16..4:  0.6%  1.6%  0.3%  B16..8: 44.9% 14.2%  3.8%  direct:12.8%  skip:21.9%  L0:39.7% L1:47.3% BI:13.0%
x264 [info]: 8x8 transform intra:75.1% inter:63.3%
x264 [info]: direct mvs  spatial:94.7% temporal:5.3%
x264 [info]: coded y,uvDC,uvAC intra: 78.0% 80.9% 55.3% inter: 41.7% 39.4% 9.3%
x264 [info]: i16 v,h,dc,p: 47% 23% 12% 17%
x264 [info]: i8 v,h,dc,ddl,ddr,vr,hd,vl,hu:  7% 13% 12%  8% 12% 10% 14%  9% 15%
x264 [info]: i4 v,h,dc,ddl,ddr,vr,hd,vl,hu:  7% 23%  8%  6% 11%  8% 14%  7% 16%
x264 [info]: i8c dc,h,v,p: 44% 27% 16% 12%
x264 [info]: Weighted P-Frames: Y:4.7% UV:2.8%
x264 [info]: ref P L0: 50.5% 12.3% 24.5% 10.2%  2.3%  0.1%
x264 [info]: ref B L0: 84.9% 12.1%  3.0%
x264 [info]: ref B L1: 92.4%  7.6%
x264 [info]: SSIM Mean Y:0.9761301 (16.221db)
x264 [info]: PSNR Mean Y:43.481 U:47.389 V:48.090 Avg:44.386 Global:42.495 kb/s:13929.63
Скриншоты



Релиз подготовлен для просмотра на Apple TV, iPad, iPhone, iPod Touch.
Для просмотра данного релиза на компьютере с ОС Windows рекомендуется использовать VLC media player
Зарегистрирован:
  • 19-Дек-13 14:44
  • Скачан: 1,665 раз

Скачать .torrent

97 KB

Тип: обычная
Статус: проверено
Размер: 9.64 GB  ·  magnet2DD51870F975F0CE75DB6DCD54CD96CE647462AC
  • Свернуть поддиректории
  • Развернуть
  • Переключить
  • Увел./умен. окно
загружается...

alien28

Стаж: 5 лет 4 месяца

Сообщений: 30

flag

alien28 · 22-Янв-15 02:09 (спустя 1 год 1 месяц)

Слёзы накатываются при просмотре таких фильмов
Музыка, которая прёт тебя в 18 лет, останется с тобой навсегда!

НК-33

Стаж: 6 лет 11 месяцев

Сообщений: 4


НК-33 · 29-Мар-15 01:09 (спустя 2 месяца 6 дней)

Видео дёргается - неприятно смотреть!
 
All rights reserved © 2017-2018
Loading...
Error