(JPop, Vocal) Emi Fujita - Дискография (5 альбомов) - 2002-2010, + Le Couple, FLAC, APE (tracks/image+.cue), lossless

Статистика раздачи
Размер:  2 GB   |   Зарегистрирован:  6 лет 10 месяцев   |   .torrent скачан:  1,756 раз
Сиды:  2
Автор
Сообщение

Stranger_60

Стаж: 10 лет 4 месяца

Сообщений: 96

flag

Stranger_60 · 03-Апр-10 22:19 (8 лет 8 месяцев назад, ред. 31-Янв-12 20:41)

 

Emi Fujita Discography - 5 альбомов Жанр: JPop, Vocal, Acoustic
Страна-производитель диска: Japan
Издатель (лейбл): Pony Canyon Entertainment (Pacific) Ltd. ©
Битрейт аудио: lossless
Наличие обложек в содержимом раздачи: да
Встроенные тексты песен (lyrics): да

[2002] - Camomile Extra
Год издания диска: 2002
Номер по каталогу: PMDJ 01603
Аудио кодек: APE (*.ape)
Тип рипа: tracks+.cue
Продолжительность: 58:08
Источник (релизер): newageparadise

Треклист:
01. Fields of Gold [5:05]
02. Down by the Salley Gardens [4:08]
03. In My Life [3:07]
04. Unchained Melody [4:18]
05. Desperado [3:32]
06. Red is the Rose [3:35]
07. Today [4:22]
08. Tir n'a Noir [4:43]
09. The Water is Wide [4:33]
10. Wide Awake [3:56]
11. Moon River [3:57]
12. From a Distance [4:21]
13. At the End of the Day [4:29]
14. Wishes [4:02]
Лог создания рипа
Exact Audio Copy V0.99 prebeta 5 from 4. May 2009
EAC extraction logfile from 6. March 2010, 17:33
Emi Fujita / Camomile Extra
Used drive : PLEXTOR DVDR PX-740A Adapter: 4 ID: 0
Read mode : Secure
Utilize accurate stream : Yes
Defeat audio cache : Yes
Make use of C2 pointers : No
Overread into Lead-In and Lead-Out : No
Fill up missing offset samples with silence : Yes
Delete leading and trailing silent blocks : No
Null samples used in CRC calculations : Yes
Used interface : Native Win32 interface for Win NT & 2000
Used output format : Internal WAV Routines
Sample format : 44.100 Hz; 16 Bit; Stereo
TOC of the extracted CD
Track | Start | Length | Start sector | End sector
---------------------------------------------------------
1 | 0:00.00 | 5:05.12 | 0 | 22886
2 | 5:05.12 | 4:07.38 | 22887 | 41449
3 | 9:12.50 | 3:07.12 | 41450 | 55486
4 | 12:19.62 | 4:17.50 | 55487 | 74811
5 | 16:37.37 | 3:32.25 | 74812 | 90736
6 | 20:09.62 | 3:35.13 | 90737 | 106874
7 | 23:45.00 | 4:22.00 | 106875 | 126524
8 | 28:07.00 | 4:43.25 | 126525 | 147774
9 | 32:50.25 | 4:32.50 | 147775 | 168224
10 | 37:23.00 | 3:55.50 | 168225 | 185899
11 | 41:18.50 | 3:57.00 | 185900 | 203674
12 | 45:15.50 | 4:21.37 | 203675 | 223286
13 | 49:37.12 | 4:28.38 | 223287 | 243424
14 | 54:05.50 | 4:02.25 | 243425 | 261599
Range status and errors
Selected range
Filename H:\WAV\Emi Fujita - Camomile Extra (CD24 Bit - Halong_Audio).wav
Peak level 96.8 %
Range quality 99.9 %
Copy CRC 119D605A
Copy OK
No errors occurred
End of status report
Содержание индексной карты (.CUE)
REM GENRE Acoustic
REM DATE 2002
REM DISCID D60DA00E
REM COMMENT "ExactAudioCopy v0.99pb5"
PERFORMER "Emi Fujita"
TITLE "Camomile Extra"
FILE "Emi Fujita - Camomile Extra (CD24 Bit - Halong_Audio).wav" WAVE
TRACK 01 AUDIO
TITLE "Fields of Gold"
PERFORMER "Emi Fujita"
INDEX 01 00:00:00
TRACK 02 AUDIO
TITLE "Down by the Salley Gardens"
PERFORMER "Emi Fujita"
INDEX 01 05:05:12
TRACK 03 AUDIO
TITLE "In My Life"
PERFORMER "Emi Fujita"
INDEX 01 09:12:50
TRACK 04 AUDIO
TITLE "Unchained Melody"
PERFORMER "Emi Fujita"
INDEX 01 12:19:62
TRACK 05 AUDIO
TITLE "Desperado"
PERFORMER "Emi Fujita"
INDEX 01 16:37:37
TRACK 06 AUDIO
TITLE "Red is the Rose"
PERFORMER "Emi Fujita"
INDEX 01 20:09:62
TRACK 07 AUDIO
TITLE "Today"
PERFORMER "Emi Fujita"
INDEX 01 23:45:00
TRACK 08 AUDIO
TITLE "Tir n'a Noir"
PERFORMER "Emi Fujita"
INDEX 01 28:07:00
TRACK 09 AUDIO
TITLE "The Water is Wide"
PERFORMER "Emi Fujita"
INDEX 01 32:50:25
TRACK 10 AUDIO
TITLE "Wide Awake"
PERFORMER "Emi Fujita"
INDEX 01 37:23:00
TRACK 11 AUDIO
TITLE "Moon River"
PERFORMER "Emi Fujita"
INDEX 01 41:18:50
TRACK 12 AUDIO
TITLE "From a Distance"
PERFORMER "Emi Fujita"
INDEX 01 45:15:50
TRACK 13 AUDIO
TITLE "At the End of the Day"
PERFORMER "Emi Fujita"
INDEX 01 49:37:12
TRACK 14 AUDIO
TITLE "Wishes"
PERFORMER "Emi Fujita"
INDEX 01 54:05:50
Лог проверки качества
fooCDtect - foobar2000 + auCDtect, baralgin.
auCDtect: CD records authenticity detector, version 0.8.2
Copyright (c) 2004 Oleg Berngardt. All rights reserved.
Copyright (c) 2004 Alexander Djourik. All rights reserved.
mode: 0
===========================================
Track: 01. Emi Fujita - Fields of Gold
Quality: Unknown
===========================================
Track: 02. Emi Fujita - Down by the Salley Gardens
Quality: MPEG 100%
===========================================
Track: 03. Emi Fujita - In My Life
Quality: CDDA 43%
===========================================
Track: 04. Emi Fujita - Unchained Melody
Quality: Unknown
===========================================
Track: 05. Emi Fujita - Desperado
Quality: Unknown
===========================================
Track: 06. Emi Fujita - Red is the Rose
Quality: CDDA 43%
===========================================
Track: 07. Emi Fujita - Today
Quality: Unknown
===========================================
Track: 08. Emi Fujita - Tir n'a Noir
Quality: CDDA 100%
===========================================
Track: 09. Emi Fujita - The Water is Wide
Quality: CDDA 99%
===========================================
Track: 10. Emi Fujita - Wide Awake
Quality: Unknown
===========================================
Track: 11. Emi Fujita - Moon River
Quality: CDDA 100%
===========================================
Track: 12. Emi Fujita - From a Distance
Quality: CDDA 100%
===========================================
Track: 13. Emi Fujita - At the End of the Day
Quality: CDDA 100%
===========================================
Track: 14. Emi Fujita - Wishes
Quality: CDDA 100%
===========================================

Доп. информация: The First Solo Project from Japanese Singer. Official Release is Exclusive to Japan and Korea.
[2003] - Camomile Blend

Год выпуска диска: 2003
Аудио кодек: FLAC
Тип рипа: tracks+.cue
Продолжительность: 58:01
Источник: Возможно hdvietnam

Трэклист:
01. Father By Thy Hand / Ledsag Os Herre ~A Cappella~ [1:25]
02. First Of May [3:41]
03. Longer [3:29]
04. Runaway [4:05]
05. Every Breath You Take [3:42]
06. When I Dream [4:24]
07. Beneath A Rowan Tree [4:51]
08. Eleanor Plunkett (Instrumental) [1:23]
09. Once In A Very Blue Moon [4:20]
10. True Colors [3:56]
11. Faithless Love [3:20]
12. Angel Voices Calling [4:22]
13. Home On The Range [4:41]
14. What A Wonderful World [4:13]
15. Good Night [3:59]
16. Father By Thy Hand / Ledsag Os Herre ~Scat~ [2:09]
fooCDtect - foobar2000 + auCDtect
fooCDtect - foobar2000 + auCDtect, baralgin.
auCDtect: CD records authenticity detector, version 0.8.2
=======================================================
Track: 01. Emi Fujita - Father By Thy Hand - Ledsag Os Herre ~A Cappella~
Quality: CDDA, 42%
=======================================================
Track: 02. Emi Fujita - First Of May
Quality: unknown
=======================================================
Track: 03. Emi Fujita - Longer
Quality: CDDA, 100%
=======================================================
Track: 04. Emi Fujita - Runaway
Quality: CDDA, 100%
=======================================================
Track: 05. Emi Fujita - Every Breath You Take
Quality: unknown
=======================================================
Track: 06. Emi Fujita - When I Dream
Quality: MPEG, 89%
=======================================================
Track: 07. Emi Fujita - Beneath A Rowan Tree
Quality: CDDA, 100%
=======================================================
Track: 08. Emi Fujita - Eleanor Plunkett (Instrumental)
Quality: MPEG, 100%
=======================================================
Track: 09. Emi Fujita - Once In A Very Blue Moon
Quality: CDDA, 43%
=======================================================
Track: 10. Emi Fujita - True Colors
Quality: MPEG, 79%
=======================================================
Track: 11. Emi Fujita - Faithless Love
Quality: CDDA, 86%
=======================================================
Track: 12. Emi Fujita - Angel Voices Calling
Quality: CDDA, 43%
=======================================================
Track: 13. Emi Fujita - Home On The Range
Quality: CDDA, 100%
=======================================================
Track: 14. Emi Fujita - What A Wonderful World
Quality: CDDA, 100%
=======================================================
Track: 15. Emi Fujita - Good Night
Quality: CDDA, 99%
=======================================================
Track: 16. Emi Fujita - Father By Thy Hand - Ledsag Os Herre ~Scat~
Quality: CDDA, 54%
=======================================================
Содержание индексной карты (.CUE)
REM GENRE Pop Standards
REM DATE 2004
REM COMMENT Ripped by Trung Luong Le
PERFORMER "藤田恵美"
TITLE "Camomile Blend"
FILE "01 - Father By Thy Hand - Ledsag Os Herre -A Cappella-.flac" WAVE
TRACK 01 AUDIO
TITLE "Father By Thy Hand / Ledsag Os Herre ~A Cappella~"
PERFORMER "藤田恵美"
INDEX 01 00:00:00
FILE "02 - First Of May.flac" WAVE
TRACK 02 AUDIO
TITLE "First Of May"
PERFORMER "藤田恵美"
INDEX 01 00:00:00
FILE "03 - Longer.flac" WAVE
TRACK 03 AUDIO
TITLE "Longer"
PERFORMER "藤田恵美"
INDEX 01 00:00:00
FILE "04 - Runaway.flac" WAVE
TRACK 04 AUDIO
TITLE "Runaway"
PERFORMER "藤田恵美"
INDEX 01 00:00:00
FILE "05 - Every Breath You Take.flac" WAVE
TRACK 05 AUDIO
TITLE "Every Breath You Take"
PERFORMER "藤田恵美"
INDEX 01 00:00:00
FILE "06 - When I Dream.flac" WAVE
TRACK 06 AUDIO
TITLE "When I Dream"
PERFORMER "藤田恵美"
INDEX 01 00:00:00
FILE "07 - Beneath A Rowan Tree.flac" WAVE
TRACK 07 AUDIO
TITLE "Beneath A Rowan Tree"
PERFORMER "藤田恵美"
INDEX 01 00:00:00
FILE "08 - Eleanor Plunkett (Instrumental).flac" WAVE
TRACK 08 AUDIO
TITLE "Eleanor Plunkett (Instrumental)"
PERFORMER "藤田恵美"
INDEX 01 00:00:00
FILE "09 - Once In A Very Blue Moon.flac" WAVE
TRACK 09 AUDIO
TITLE "Once In A Very Blue Moon"
PERFORMER "藤田恵美"
INDEX 01 00:00:00
FILE "10 - True Colors.flac" WAVE
TRACK 10 AUDIO
TITLE "True Colors"
PERFORMER "藤田恵美"
INDEX 01 00:00:00
FILE "11 - Faithless Love.flac" WAVE
TRACK 11 AUDIO
TITLE "Faithless Love"
PERFORMER "藤田恵美"
INDEX 01 00:00:00
FILE "12 - Angel Voices Calling.flac" WAVE
TRACK 12 AUDIO
TITLE "Angel Voices Calling"
PERFORMER "藤田恵美"
INDEX 01 00:00:00
FILE "13 - Home On The Range.flac" WAVE
TRACK 13 AUDIO
TITLE "Home On The Range"
PERFORMER "藤田恵美"
INDEX 01 00:00:00
FILE "14 - What A Wonderful World.flac" WAVE
TRACK 14 AUDIO
TITLE "What A Wonderful World"
PERFORMER "藤田恵美"
INDEX 01 00:00:00
FILE "15 - Good Night.flac" WAVE
TRACK 15 AUDIO
TITLE "Good Night"
PERFORMER "藤田恵美"
INDEX 01 00:00:00
FILE "16 - Father By Thy Hand - Ledsag Os Herre -Scat-.flac" WAVE
TRACK 16 AUDIO
TITLE "Father By Thy Hand / Ledsag Os Herre ~Scat~"
PERFORMER "藤田恵美"
INDEX 01 00:00:00
[2006] - Camomile Classics

Год издания диска: 2006
Аудио кодек: APE (*.ape)
Тип рипа: image+.cue
Продолжительность: 01:03:06

Треклист:
01. Over The Rainbow [3:46]
02. Melody Fair [4:11]
03. All My Loving [3:19]
04. The Rose [3:39]
05. I'll Have To Say I Love You In A Song [3:57]
06. Lovin' You [4:37]
07. The End Of The World [4:13]
08. Best Of My Love [4:44]
09. And I Love You So [5:00]
10. Try To Remember [3:04]
11. Walking In The Air [5:07]
12. If [3:02]
13. Leaving Ona Jet Plane [5:33]
14. Over The Rainbow (Reprise) [1:09]
15. Proud Of You [3:49]
16. Rainbow Bridge [3:55]
Содержание индексной карты (.CUE)
PERFORMER "Emi Fujita"
TITLE "Camomile Classics"
FILE "Emi Fujita - Camomile Classics.ape" WAVE
TRACK 01 AUDIO
TITLE "Over the rainbow"
PERFORMER "Emi Fujita"
INDEX 01 00:00:00
TRACK 02 AUDIO
TITLE "Melody fair"
PERFORMER "Emi Fujita"
INDEX 00 03:43:55
INDEX 01 03:45:54
TRACK 03 AUDIO
TITLE "All my loving"
PERFORMER "Emi Fujita"
INDEX 00 07:55:11
INDEX 01 07:57:10
TRACK 04 AUDIO
TITLE "The rose"
PERFORMER "Emi Fujita"
INDEX 00 11:13:58
INDEX 01 11:15:56
TRACK 05 AUDIO
TITLE "I'll have to say I love you in a song"
PERFORMER "Emi Fujita"
INDEX 00 14:52:51
INDEX 01 14:54:47
TRACK 06 AUDIO
TITLE "Lovin' you"
PERFORMER "Emi Fujita"
INDEX 00 18:49:33
INDEX 01 18:51:31
TRACK 07 AUDIO
TITLE "The end of the world"
PERFORMER "Emi Fujita"
INDEX 00 23:26:51
INDEX 01 23:28:47
TRACK 08 AUDIO
TITLE "Best of my love"
PERFORMER "Emi Fujita"
INDEX 00 27:40:09
INDEX 01 27:42:05
TRACK 09 AUDIO
TITLE "And I love you so"
PERFORMER "Emi Fujita"
INDEX 00 32:23:65
INDEX 01 32:25:60
TRACK 10 AUDIO
TITLE "Try to remember"
PERFORMER "Emi Fujita"
INDEX 00 37:24:09
INDEX 01 37:25:73
TRACK 11 AUDIO
TITLE "Walking in the air"
PERFORMER "Emi Fujita"
INDEX 00 40:27:44
INDEX 01 40:29:38
TRACK 12 AUDIO
TITLE "If"
PERFORMER "Emi Fujita"
INDEX 00 45:34:60
INDEX 01 45:36:53
TRACK 13 AUDIO
TITLE "Leaving ona jet plane"
PERFORMER "Emi Fujita"
INDEX 00 48:37:14
INDEX 01 48:39:06
TRACK 14 AUDIO
TITLE "Over the rainbow (reprise)"
PERFORMER "Emi Fujita"
INDEX 00 54:10:45
INDEX 01 54:12:38
TRACK 15 AUDIO
TITLE "Proud of you"
PERFORMER "Emi Fujita"
INDEX 00 55:19:33
INDEX 01 55:21:30
TRACK 16 AUDIO
TITLE "Rainbow bridge"
PERFORMER "Emi Fujita"
INDEX 00 59:09:01
INDEX 01 59:10:64
Лог проверки качества
fooCDtect - foobar2000 + auCDtect, baralgin.
auCDtect: CD records authenticity detector, version 0.8.2
Copyright (c) 2004 Oleg Berngardt. All rights reserved.
Copyright (c) 2004 Alexander Djourik. All rights reserved.
mode: 0
===========================================
Track: 01. Emi Fujita - Over The Rainbow
Quality: Unknown
===========================================
Track: 02. Emi Fujita - Melody Fair
Quality: Unknown
===========================================
Track: 03. Emi Fujita - All My Loving
Quality: Unknown
===========================================
Track: 04. Emi Fujita - The Rose
Quality: Unknown
===========================================
Track: 05. Emi Fujita - I'll Have To Say I Love You In A Song
Quality: Unknown
===========================================
Track: 06. Emi Fujita - Lovin' You
Quality: Unknown
===========================================
Track: 07. Emi Fujita - The End Of The World
Quality: Unknown
===========================================
Track: 08. Emi Fujita - Best Of My Love
Quality: Unknown
===========================================
Track: 09. Emi Fujita - And I Love You So
Quality: Unknown
===========================================
Track: 10. Emi Fujita - Try To Remember
Quality: Unknown
===========================================
Track: 11. Emi Fujita - Walking In The Air
Quality: Unknown
===========================================
Track: 12. Emi Fujita - If
Quality: Unknown
===========================================
Track: 13. Emi Fujita - Leaving Ona Jet Plane
Quality: Unknown
===========================================
Track: 14. Emi Fujita - Over The Rainbow (Reprise)
Quality: CDDA 100%
===========================================
Track: 15. Emi Fujita - Proud Of You
Quality: Unknown
===========================================
Track: 16. Emi Fujita - Rainbow Bridge
Quality: Unknown
===========================================
[2006] - Camomile Plus

Год выпуска диска: 2006
Аудио кодек: APE (*.ape)
Тип рипа: tracks+.cue
Продолжительность: 01:04:47

Треклист:
01. First of May [3:38]
02. Fields of Gold [5:01]
03. Today [4:23]
04. Moon River [3:54]
06. Unchained Melody [4:18]
07. Longer [3:27]
08. Every Breath You Take [3:40]
09. True Colors [3:53]
10. What a Wonderful World [4:09]
11. Somewhere [5:23]
12. 200x [4:58]
13. Wishes (Le Couple) [4:00]
14. Prefect (Live in Singapore) [4:46]
15. From A Distance (Live in Singapore) [4:43]
16. My Heart Will Go On [4:34]
Лог проверки качества
fooCDtect - foobar2000 + auCDtect, baralgin.
auCDtect: CD records authenticity detector, version 0.8.2
Copyright (c) 2004 Oleg Berngardt. All rights reserved.
Copyright (c) 2004 Alexander Djourik. All rights reserved.
mode: 0
===========================================
Track: 01. Emi Fujita - First of May
Quality: CDDA 100%
===========================================
Track: 02. Emi Fujita - Fields of Gold
Quality: CDDA 100%
===========================================
Track: 03. Emi Fujita - Today
Quality: CDDA 100%
===========================================
Track: 04. Emi Fujita - Moon River
Quality: CDDA 100%
===========================================
Track: 06. Emi Fujita - Unchained Melody
Quality: CDDA 100%
===========================================
Track: 07. Emi Fujita - Longer
Quality: CDDA 100%
===========================================
Track: 08. Emi Fujita - Every Breath You Take
Quality: Unknown
===========================================
Track: 09. Emi Fujita - True Colors
Quality: CDDA 100%
===========================================
Track: 10. Emi Fujita - What a Wonderful World
Quality: CDDA 100%
===========================================
Track: 11. Emi Fujita - Somewhere
Quality: CDDA 100%
===========================================
Track: 12. Emi Fujita - 200x
Quality: CDDA 100%
===========================================
Track: 13. Emi Fujita - Wishes (Le Couple)
Quality: CDDA 100%
===========================================
Track: 14. Emi Fujita - Prefect (Live in Singapore)
Quality: CDDA 100%
===========================================
Track: 15. Emi Fujita - From A Distance (Live in Singapore)
Quality: CDDA 100%
===========================================
Track: 16. Emi Fujita - My Heart Will Go On
Quality: CDDA 100%
===========================================
[2010] - Camomile Smile
Год выпуска диска: 2010
Аудио кодек: FLAC(*.flac)
Тип рипа: tracks+.cue
Продолжительность: 57:00

Треклист:
01. Emi Fujita - Imagine [4:04]
02. Emi Fujita - Your Song [4:38]
03. Emi Fujita - Eternal Flame [3:45]
04. Emi Fujita - Streets Of London [4:40]
05. Emi Fujita - Both Sides Now [4:33]
06. Emi Fujita - I Honestly Love You [3:47]
07. Emi Fujita - I Believe [4:54]
08. Emi Fujita - Laughter In The Rain [4:08]
09. Emi Fujita - Smile [3:35]
10. Emi Fujita - Blue Moon [3:57]
11. Emi Fujita - The Perfect Moment [5:50]
12. Emi Fujita - From A Distance [4:23]
13. Emi Fujita - Danny Boy [4:45]
Содержание индексной карты (.CUE)
REM GENRE Jazz
REM DATE 2010
REM DISCID A30D5B0D
REM COMMENT "ExactAudioCopy v1.0b2"
PERFORMER "Emi Fujita"
TITLE "Camomile Smile"
FILE "Emi Fujita - Camomile Smile (2010) [FLAC]\01 - Imagine.wav" WAVE
TRACK 01 AUDIO
TITLE "Imagine"
PERFORMER "Emi Fujita"
INDEX 01 00:00:00
TRACK 02 AUDIO
TITLE "Your Song"
PERFORMER "Emi Fujita"
INDEX 00 04:00:40
FILE "Emi Fujita - Camomile Smile (2010) [FLAC]\02 - Your Song.wav" WAVE
INDEX 01 00:00:00
TRACK 03 AUDIO
TITLE "Eternal Flame"
PERFORMER "Emi Fujita"
INDEX 00 04:35:38
FILE "Emi Fujita - Camomile Smile (2010) [FLAC]\03 - Eternal Flame.wav" WAVE
INDEX 01 00:00:00
TRACK 04 AUDIO
TITLE "Streets Of London"
PERFORMER "Emi Fujita"
INDEX 00 03:43:03
FILE "Emi Fujita - Camomile Smile (2010) [FLAC]\04 - Streets Of London.wav" WAVE
INDEX 01 00:00:00
TRACK 05 AUDIO
TITLE "Both Sides Now"
PERFORMER "Emi Fujita"
INDEX 00 04:36:38
FILE "Emi Fujita - Camomile Smile (2010) [FLAC]\05 - Both Sides Now.wav" WAVE
INDEX 01 00:00:00
TRACK 06 AUDIO
TITLE "I Honestly Love You"
PERFORMER "Emi Fujita"
INDEX 00 04:31:31
FILE "Emi Fujita - Camomile Smile (2010) [FLAC]\06 - I Honestly Love You.wav" WAVE
INDEX 01 00:00:00
TRACK 07 AUDIO
TITLE "I Believe"
PERFORMER "Emi Fujita"
INDEX 00 03:43:19
FILE "Emi Fujita - Camomile Smile (2010) [FLAC]\07 - I Believe.wav" WAVE
INDEX 01 00:00:00
TRACK 08 AUDIO
TITLE "Laughter In The Rain"
PERFORMER "Emi Fujita"
INDEX 00 04:51:45
FILE "Emi Fujita - Camomile Smile (2010) [FLAC]\08 - Laughter In The Rain.wav" WAVE
INDEX 01 00:00:00
TRACK 09 AUDIO
TITLE "Smile"
PERFORMER "Emi Fujita"
INDEX 00 04:05:65
FILE "Emi Fujita - Camomile Smile (2010) [FLAC]\09 - Smile.wav" WAVE
INDEX 01 00:00:00
TRACK 10 AUDIO
TITLE "Blue Moon"
PERFORMER "Emi Fujita"
INDEX 00 03:32:45
FILE "Emi Fujita - Camomile Smile (2010) [FLAC]\10 - Blue Moon.wav" WAVE
INDEX 01 00:00:00
TRACK 11 AUDIO
TITLE "The Perfect Moment"
PERFORMER "Emi Fujita"
INDEX 00 03:54:38
FILE "Emi Fujita - Camomile Smile (2010) [FLAC]\11 - The Perfect Moment.wav" WAVE
INDEX 01 00:00:00
TRACK 12 AUDIO
TITLE "From A Distance"
PERFORMER "Emi Fujita"
INDEX 00 05:48:69
FILE "Emi Fujita - Camomile Smile (2010) [FLAC]\12 - From A Distance.wav" WAVE
INDEX 01 00:00:00
TRACK 13 AUDIO
TITLE "Danny Boy"
PERFORMER "Emi Fujita"
INDEX 00 04:18:43
FILE "Emi Fujita - Camomile Smile (2010) [FLAC]\13 - Danny Boy.wav" WAVE
INDEX 01 00:00:00
Лог создания рипа
Exact Audio Copy V1.0 beta 2 from 29. April 2011
EAC extraction logfile from 8. October 2011, 12:32
Emi Fujita / Camomile Smile
Used drive : HL-DT-STDVD+-RW GT32N Adapter: 0 ID: 1
Read mode : Secure
Utilize accurate stream : Yes
Defeat audio cache : Yes
Make use of C2 pointers : No
Read offset correction : 103
Overread into Lead-In and Lead-Out : No
Fill up missing offset samples with silence : Yes
Delete leading and trailing silent blocks : No
Null samples used in CRC calculations : Yes
Used interface : Native Win32 interface for Win NT & 2000
Gap handling : Appended to previous track
Used output format : User Defined Encoder
Selected bitrate : 128 kBit/s
Quality : High
Add ID3 tag : No
Command line compressor : C:\Program Files (x86)\FLAC\flac.exe
Additional command line options : -8 -V -T "ARTIST=%artist%" -T "TITLE=%title%" -T "ALBUM=%albumtitle%" -T "DATE=%year%" -T "TRACKNUMBER=%tracknr%" -T "TOTALTRACKS=%numtracks%" -T "GENRE=%genre%" -T "ALBUM ARTIST=%albumartist%" -T "COMMENT=L2Bits, EAC V1.0
TOC of the extracted CD
Track | Start | Length | Start sector | End sector
---------------------------------------------------------
1 | 0:00.00 | 4:03.58 | 0 | 18282
2 | 4:03.58 | 4:37.52 | 18283 | 39109
3 | 8:41.35 | 3:45.37 | 39110 | 56021
4 | 12:26.72 | 4:40.16 | 56022 | 77037
5 | 17:07.13 | 4:33.08 | 77038 | 97520
6 | 21:40.21 | 3:46.57 | 97521 | 114527
7 | 25:27.03 | 4:54.13 | 114528 | 136590
8 | 30:21.16 | 4:08.00 | 136591 | 155190
9 | 34:29.16 | 3:34.42 | 155191 | 171282
10 | 38:03.58 | 3:57.32 | 171283 | 189089
11 | 42:01.15 | 5:50.37 | 189090 | 215376
12 | 47:51.52 | 4:23.06 | 215377 | 235107
13 | 52:14.58 | 4:45.15 | 235108 | 256497
Track 1
Filename F:\Tracker\My RIP\Emi Fujita - Camomile Smile (2010) [FLAC]\01 - Imagine.wav
Pre-gap length 0:00:02.00
Peak level 85.5 %
Extraction speed 1.2 X
Track quality 100.0 %
Test CRC 33AD6A16
Copy CRC 33AD6A16
Cannot be verified as accurate (confidence 15) [4546B02D], AccurateRip returned [E5A3CFB9] (AR v2)
Copy OK
Track 2
Filename F:\Tracker\My RIP\Emi Fujita - Camomile Smile (2010) [FLAC]\02 - Your Song.wav
Pre-gap length 0:00:03.18
Peak level 97.2 %
Extraction speed 1.4 X
Track quality 100.0 %
Test CRC FE0D45F0
Copy CRC FE0D45F0
Cannot be verified as accurate (confidence 15) [81B4B58B], AccurateRip returned [9C880630] (AR v2)
Copy OK
Track 3
Filename F:\Tracker\My RIP\Emi Fujita - Camomile Smile (2010) [FLAC]\03 - Eternal Flame.wav
Pre-gap length 0:00:02.14
Peak level 98.2 %
Extraction speed 1.5 X
Track quality 100.0 %
Test CRC E28ACD5F
Copy CRC E28ACD5F
Cannot be verified as accurate (confidence 15) [8A6399C4], AccurateRip returned [ED64BC72] (AR v2)
Copy OK
Track 4
Filename F:\Tracker\My RIP\Emi Fujita - Camomile Smile (2010) [FLAC]\04 - Streets Of London.wav
Pre-gap length 0:00:02.34
Peak level 97.2 %
Extraction speed 1.5 X
Track quality 99.9 %
Test CRC 76A43530
Copy CRC 76A43530
Cannot be verified as accurate (confidence 15) [09A21CFB], AccurateRip returned [70ABF65B] (AR v2)
Copy OK
Track 5
Filename F:\Tracker\My RIP\Emi Fujita - Camomile Smile (2010) [FLAC]\05 - Both Sides Now.wav
Pre-gap length 0:00:03.53
Peak level 98.6 %
Extraction speed 1.8 X
Track quality 100.0 %
Test CRC D7A419AE
Copy CRC D7A419AE
Cannot be verified as accurate (confidence 15) [099D3A6C], AccurateRip returned [D6E2F7E7] (AR v2)
Copy OK
Track 6
Filename F:\Tracker\My RIP\Emi Fujita - Camomile Smile (2010) [FLAC]\06 - I Honestly Love You.wav
Pre-gap length 0:00:01.52
Peak level 81.8 %
Extraction speed 1.6 X
Track quality 99.9 %
Test CRC F343DF71
Copy CRC F343DF71
Cannot be verified as accurate (confidence 15) [182E9C1E], AccurateRip returned [E3150DAC] (AR v2)
Copy OK
Track 7
Filename F:\Tracker\My RIP\Emi Fujita - Camomile Smile (2010) [FLAC]\07 - I Believe.wav
Pre-gap length 0:00:03.38
Peak level 100.0 %
Extraction speed 2.0 X
Track quality 100.0 %
Test CRC FCCD2B84
Copy CRC FCCD2B84
Cannot be verified as accurate (confidence 15) [A4ADA7EA], AccurateRip returned [10DF3C05] (AR v2)
Copy OK
Track 8
Filename F:\Tracker\My RIP\Emi Fujita - Camomile Smile (2010) [FLAC]\08 - Laughter In The Rain.wav
Pre-gap length 0:00:02.43
Peak level 88.3 %
Extraction speed 1.8 X
Track quality 99.9 %
Test CRC D533F842
Copy CRC D533F842
Cannot be verified as accurate (confidence 15) [CC6C0B95], AccurateRip returned [BB6333E6] (AR v2)
Copy OK
Track 9
Filename F:\Tracker\My RIP\Emi Fujita - Camomile Smile (2010) [FLAC]\09 - Smile.wav
Pre-gap length 0:00:02.10
Peak level 95.0 %
Extraction speed 2.1 X
Track quality 100.0 %
Test CRC C36C3790
Copy CRC C36C3790
Cannot be verified as accurate (confidence 15) [B4A615ED], AccurateRip returned [8FD01851] (AR v2)
Copy OK
Track 10
Filename F:\Tracker\My RIP\Emi Fujita - Camomile Smile (2010) [FLAC]\10 - Blue Moon.wav
Pre-gap length 0:00:01.72
Peak level 89.3 %
Extraction speed 2.2 X
Track quality 100.0 %
Test CRC 1E92064F
Copy CRC 1E92064F
Cannot be verified as accurate (confidence 15) [CDF5BD49], AccurateRip returned [5AF246D1] (AR v2)
Copy OK
Track 11
Filename F:\Tracker\My RIP\Emi Fujita - Camomile Smile (2010) [FLAC]\11 - The Perfect Moment.wav
Pre-gap length 0:00:02.69
Peak level 98.6 %
Extraction speed 2.4 X
Track quality 100.0 %
Test CRC EF71E0BF
Copy CRC EF71E0BF
Cannot be verified as accurate (confidence 15) [16AEAA88], AccurateRip returned [55297768] (AR v2)
Copy OK
Track 12
Filename F:\Tracker\My RIP\Emi Fujita - Camomile Smile (2010) [FLAC]\12 - From A Distance.wav
Pre-gap length 0:00:01.43
Peak level 90.8 %
Extraction speed 2.4 X
Track quality 100.0 %
Test CRC 913681AE
Copy CRC 913681AE
Cannot be verified as accurate (confidence 15) [CF3EE2ED], AccurateRip returned [6319C0AF] (AR v2)
Copy OK
Track 13
Filename F:\Tracker\My RIP\Emi Fujita - Camomile Smile (2010) [FLAC]\13 - Danny Boy.wav
Pre-gap length 0:00:04.38
Peak level 94.8 %
Extraction speed 2.3 X
Track quality 99.9 %
Test CRC FCC9F1FA
Copy CRC FCC9F1FA
Cannot be verified as accurate (confidence 15) [F0877729], AccurateRip returned [8EC9D0BD] (AR v2)
Copy OK
No tracks could be verified as accurate
You may have a different pressing from the one(s) in the database
No errors occurred
End of status report
==== Log checksum B99A3DFBC287635E193BFCD10EA1B65FC0DB2274BA5796D0F1620C99337AD65F ====


Бонус:
Le Couple - 2004 - All Singles of the Decade and More
Год выпуска диска: 2004
Аудио кодек: FLAC
Тип рипа: image+.cue
Продолжительность: 01:13:44
Источник: ослосеть

Трэклист:
01. Le Couple - 海の底でうたう唄 [4:00]
02. Le Couple - 夢で待ち合わせしよう [4:10]
03. Le Couple - 7月の感傷 [4:11]
04. Le Couple - My special thanks [4:20]
05. Le Couple - ひだまりの詩 [4:10]
06. Le Couple - Sofa [3:42]
07. Le Couple - もしもあなたと暮せたら [5:11]
08. Le Couple - 縁は異なもの [4:31]
09. Le Couple - 逢えてよかった [4:26]
10. Le Couple - ふたつの夢 [4:29]
11. Le Couple - お帰りなさい [4:10]
12. Le Couple - ジュリアン [3:46]
13. Le Couple - 一日の終わりに [4:57]
14. Le Couple - Song of Love [5:04]
15. Le Couple - すてきな物語 [4:21]
16. Le Couple - 月鏡 [4:13]
17. Le Couple - 佐世保 [4:04]
Треклист на английском (Google translate)
Sing song at the bottom of the sea
Trying to meet a dream
Sentiment in July
My special thanks
Hidamari poem
Sofa
If you Moshimo 暮Setara
What A Difference A circle
Nice to meet you
Two dreams
Welcome back
Julian
At end of day
Song of Love
Charming tale
Mon mirror
Sasebo
Лог проверки качества
fooCDtect - foobar2000 + auCDtect, baralgin.
auCDtect: CD records authenticity detector, version 0.8.2
Copyright (c) 2004 Oleg Berngardt. All rights reserved.
Copyright (c) 2004 Alexander Djourik. All rights reserved.
mode: 0
===========================================
Track: 01. Le Couple - 海の底でうたう唄
Quality: CDDA 100%
===========================================
Track: 02. Le Couple - 夢で待ち合わせしよう
Quality: CDDA 100%
===========================================
Track: 03. Le Couple - 7月の感傷
Quality: CDDA 100%
===========================================
Track: 04. Le Couple - My special thanks
Quality: CDDA 99%
===========================================
Track: 05. Le Couple - ひだまりの詩
Quality: CDDA 100%
===========================================
Track: 06. Le Couple - Sofa
Quality: CDDA 100%
===========================================
Track: 07. Le Couple - もしもあなたと暮せたら
Quality: CDDA 99%
===========================================
Track: 08. Le Couple - 縁は異なもの
Quality: CDDA 100%
===========================================
Track: 09. Le Couple - 逢えてよかった
Quality: CDDA 100%
===========================================
Track: 10. Le Couple - ふたつの夢
Quality: CDDA 100%
===========================================
Track: 11. Le Couple - お帰りなさい
Quality: CDDA 100%
===========================================
Track: 12. Le Couple - ジュリアン
Quality: CDDA 100%
===========================================
Track: 13. Le Couple - 一日の終わりに
Quality: CDDA 100%
===========================================
Track: 14. Le Couple - Song of Love
Quality: CDDA 100%
===========================================
Track: 15. Le Couple - すてきな物語
Quality: CDDA 86%
===========================================
Track: 16. Le Couple - 月鏡
Quality: CDDA 49%
===========================================
Track: 17. Le Couple - 佐世保
Quality: MPEG 89%
===========================================


Доп. информация:
Биография
Эми Фудзита (яп. 藤田恵美, род. 15 мая 1963 года) — японская певица. Дебютировала как певица вместе со своим мужем Рюдзи в совместной группе «Le Couple». Их первый альбом вышел в 1994 году. Эми представила свой первый альбом в 2001 году. Серия её дисков «Сamomile» — каверы популярных западных песен.
Другие альбомы:
Emi Fujita - 2007 - Camomile Best Audio
В активном поиске:
альбомы
  • Camomile (2001)
  • Rembrandt Sky (2005)
  • Lullaby of Camomile Concert 2008 HK Special Version LPCD45 (2008)
  • Rainbow Bridge (16 May 2007) (single)
Зарегистрирован:
  • 31-Янв-12 20:41
  • Скачан: 1,756 раз

Скачать .torrent

30 KB

Тип: обычная
Статус: # сомнительно
Размер: 2 GB  ·  magnet9E62183B5A1729E16B7E0E0FDDE7812EAC2A7C85
  • Свернуть поддиректории
  • Развернуть
  • Переключить
  • Увел./умен. окно
загружается...

bruk67

VIP (Заслуженный)

Стаж: 10 лет 2 месяца

Сообщений: 8097

flag

bruk67 · 05-Апр-10 06:22 (спустя 1 день 8 часов)

Stranger_60
Для рипов вида tracks +.cue, обязательно публиковать в оформлении раздачи, под спойлером, текст CUE Sheet.
Код:
[spoiler="CUE"][pre]Содержимое CUE[/pre][/spoiler]
CUE
Содержимое CUE
3.3 В описании релиза необходимо указывать источник рипа. В частности, при публикации рипа, полученного из сторонних источников, обязательно указывать его происхождение:
трекер, локальная сеть и т.п., название ресурса, если таковое имеется (но не интерактивную ссылку!), а также ник первоначального релизера, если это возможно.
Правила публикации и оформления раздач в lossless разделах категорий Музыка, Рок-музыка, Электронная музыка

Stranger_60

Стаж: 10 лет 4 месяца

Сообщений: 96

flag

Stranger_60 · 14-Ноя-10 19:48 (спустя 7 месяцев)

Внимание!
Торрент перезалит: добавлены новые альбомы
  1. Camomile Extra (2002)
  2. Camomile Classics (2006)
  3. Camomile Plus (2006)
Просьба перекачать торрент-файл!

bruk67

VIP (Заслуженный)

Стаж: 10 лет 2 месяца

Сообщений: 8097

flag

bruk67 · 16-Ноя-10 14:47 (спустя 1 день 18 часов)

Stranger_60
  • Тему нужно привести в порядок: (Жанр) Исполнитель/Группа - Дискография (? Альбомов + ? Синглов) - Год (диапазон), Аудио кодек (тип рипа), Битрейт (диапазон)
    Пример: (Pop) Backstreet Boys - Дискография (6 Альбомов + 3 Сингла) - 1995-1999, MP3 (tracks), 128-320 kbps
  • Добавьте общую обложку.
  • Поместите треклисты в спойлеры, названия альбомов поместите в заголовки спойлеров, добавьте внутрь спойлеров обложки, отчеты, спектры
вот так это делается
Код:
[spoiler="Год - Название альбома"]
[img=right]ссылка на картинку[/img]
[b]Треклист[/b]
1 ......
2 ......
[spoiler="Лог EAC"][pre]содержание лога[/pre][/spoiler]
[/spoiler]
[spoiler="Год - Название альбома"]
[img=right]ссылка на картинку[/img]
[b]Треклист[/b]
1 ......
2 ......
[spoiler="Лог EAC"][pre]содержание лога[/pre][/spoiler]
[/spoiler]
вот так это выглядит
Год - Название альбома
[img=right]ссылка на картинку[/img]
Треклист
1 ......
2 ......
Лог EAC
содержание лога
Год - Название альбома
[img=right]ссылка на картинку[/img]
Треклист
1 ......
2 ......
Лог EAC
содержание лога
Дооформите, пожалуйста

bruk67

VIP (Заслуженный)

Стаж: 10 лет 2 месяца

Сообщений: 8097

flag

bruk67 · 17-Ноя-10 02:40 (спустя 11 часов)

Stranger_60
Обложки нужно залить на проверенный хост.
Рекомендуемые: fastpic.ru, radikal.ru, 10pix.ru
Как залить картинку на бесплатный хост
Список запрещенных на ресурсе хостингов:
http://ipicture.ru/, http://tinypic.com/, http://imageshack.us/

В оформлении альбома [2002] - Camomile Extra, лог и cue от рипа образом.
Раздаете, порезанный на треки рип.
Отсутствуют логи в альбомах: [2003] - Camomile Blend, [2006] - Camomile Plus.
Ни один трек в альбоме [2006] - Camomile Classics, не прошел проверку на качество - 100 %MPEG.
Критерии присвоения статуса "сомнительно" раздачам в музыкальном разделе
После дооформления, статус - # сомнительно

495911

Стаж: 8 лет 2 месяца

Сообщений: 16

flag

495911 · 25-Ноя-10 14:43 (спустя 8 дней, ред. 25-Ноя-10 22:19)

Дайте ПЛИИИИЗ!!!! возможность скачать Camomile Classics (2006)!
Заранее, большое спасибо!!!
Встаньте кто-нибудь на раздачу!!! ПАЖАЛАСТА!

Stranger_60

Стаж: 10 лет 4 месяца

Сообщений: 96

flag

Stranger_60 · 31-Янв-12 20:46 (спустя 1 год 2 месяца)

Внимание!
Торрент перезалит: добавлены новые альбомы + произведены небольшие косметические изменения
  1. Camomile Smile (2010)
  2. Le Couple - 2004 - All Singles of the Decade and More
Просьба перекачать торрент-файл!

roarrr

Стаж: 11 лет

Сообщений: 1014

flag

roarrr · 09-Апр-12 09:13 (спустя 2 месяца 8 дней)

Спасибо! Но если хотите послушать японские песни, а не кавери, посмотрите:
Emi Fujita - Eating The Heart - 2008, FLAC (image+.cue), lossless


Сообщения из этой темы [1 шт.] были выделены в отдельную тему tantrist
g.y.m.

Stranger_60

Стаж: 10 лет 4 месяца

Сообщений: 96

flag

Stranger_60 · 25-Июл-15 12:54 (спустя 3 года 3 месяца)

tantrist писал(а):
68306157Если кому-то нужно, продаю практически полную коллекцию. Emi Fujita на CD...
Если в ней есть что-то отсутствующее на трекере или есть возможность снять правильный рип — милости просим!
 
All rights reserved © 2017-2018
Loading...
Error