Robin Piree - I AM Hardwell - Living the Dream [2015, Netherlands, Documentary, WEB-DL, HD (720p)]

Статистика раздачи
Размер:  2.43 GB   |   Зарегистрирован:  2 года 7 месяцев   |   .torrent скачан:  206 раз

Полный источник: был сегодня

  Личи:  1
Автор
Сообщение

fd3

Top Seed 06* 1280r

Стаж: 8 лет 11 месяцев

Сообщений: 2861

flag

fd3 · 24-Мар-16 11:15 (2 года 7 месяцев назад)

 

Robin Piree / I AM Hardwell - Living the Dream
Год выпуска: 2015
Страна: Netherlands
Жанр: Documentaries
Продолжительность: 01:24:53
Режиссёр: Robin Piree
Продюсер: Patricia Berkhof, Linda Kuijpers
Описание:
Thousands of people are waiting in the dark. Behind his DJ booth Robbert van de Corput is checking his tracklist one more time. As he stands the stage lights up. He spreads his arms, lasers make their way through the stadium and the first track thrills the delirious audience. He is DJ Hardwell: chosen as #1 DJ in the world in 2013. He kicks off his first concert of the I AM Hardwell tour in Amsterdam, but fame travels faster than he can. Bookings are added, venues become bigger and shows are sold out sooner. The pressure is rising and Hardwell wants to prove he is worthy of his #1 position. This results in an extraordinary journey, on stage as well as off stage, as he visits 34 cities. The highlight is the sold out concert at Madison Square Garden in New York. Experience Hardwell even closer, personal and more spectacular than ever before! The documentary ‘I AM HARDWELL’, in which the then 25 years old DJ/producer was followed during his journey from upcoming talent to #1 DJ in the world, gave us an intriguing glimpse of Hardwell’s life. His all-encompassing motto ‘If you can dream it, you can do it’, is about the childhood dream of the once 16 years old Robbert van de Corput, to become the world’s best DJ one day. The documentary “Living the Dream”, defines how the life of the now 27 years old talent was turned upside down, since he was elected the #1 DJ in the world, both in 2013 and 2014. We follow Hardwell for 14 months, from his coronation as the #1 Dj in the world, to his legendary show at Madison Square Garden in New York.
Качество исходника: WEB-DL 720p
Качество: WEB-DL
Тип: HD (720p)
Формат: M4V
Видео: 1280х546 at 25.000 fps, MPEG-4 AVC, ~3939 kbps avg
Аудио: Dutch: 48 kHz, ААС, 2/0 (L,R), ~151.00 kbps avg
Субтитры №1: Dutch
Субтитры №2: English
Субтитры №3: Spanish
Субтитры №4: French
Субтитры №5: Portuguese
Субтитры №6: Italian
Субтитры №7: German
Субтитры №8: Russian
MediaInfo
Общее
Полное имя : E:\Мои Документы\Новая папкаы\Robin Piree - I AM Hardwell - Living the Dream.m4v
Формат : MPEG-4
Идентификатор кодека : M4V (M4V /mp42/isom)
Размер файла : 2,43 Гбайт
Продолжительность : 1 ч. 24 м.
Режим общего битрейта : Переменный
Общий поток : 4105 Кбит/сек
Сезон : 0
Название фильма : I Am Hardwell - Living the Dream
Часть : 0
Исполнитель : Robin Piree
Жанр : Documental
Тип содержимого : Short Film
Описание : Hij is Hardwell; in oktober 2013 uitgeroepen tot beste DJ van de wereld. In Amsterdam trapt hij zijn
Дата записи : UTC 2015-10-15 07:00:00
Дата кодирования : UTC 2016-03-07 04:56:32
Дата пометки : UTC 2016-03-24 07:23:12
Программа кодирования : MkvToMp4 [www.mkvtomp4.ru] version: 0.224 (x64)
Авторское право : © 2015 Robin Piree Film
Название сервиса : AOL
Обложка : Yes
Оценка : None
ownr : R3hab EDM
Flavour : 7:720p
LongDescription : Hij is Hardwell; in oktober 2013 uitgeroepen tot beste DJ van de wereld. In Amsterdam trapt hij zijn eerste concertshow ‘I AM Hardwell’ af, maar zijn faam gaat sneller dan hij zelf kan reizen. Duizenden mensen staan in het donker. Achter de draaitafel zit Robbert van de Corput nog één keer zijn tracklist te checken. Als hij gaat staan licht het podium op. Hij spreidt zijn armen, lichtbanen schieten door het stadion en de eerste track overspoelt het uitzinnige publiek. Boekingen lopen op, de venues worden groter en de shows raken steeds sneller uitverkocht. De druk neemt toe en Hardwell wil bewijzen dat hij met recht op nummer 1 staat. Het resulteert in een bijzondere reis, zowel on- als off stage, langs 34 wereldsteden. Met als hoogtepunt een uitverkocht Madison Square Garden in New York. Beleef I AM Hardwell dichterbij, persoonlijker en spectaculairder dan ooit!
HDVideo : Yes
AppleStoreAccountType : AOL
AppleStoreCountry : Unknown Country
AppleStoreCatalogID : 1077637426
AlbumTitleID : 0
PlayListID : 0
GenreID : 4405
cmID : 0
Vendor : docodigitalbv:vendor_id:WW_C9_1465
Видео #1
Идентификатор : 1
Формат : AVC
Формат/Информация : Advanced Video Codec
Профиль формата : Main@L3.1
Параметр CABAC формата : Нет
Параметр ReFrames формата : 2 кадра
Параметр GOP формата : M=2, N=90
Идентификатор кодека : avc1
Идентификатор кодека/Информация : Advanced Video Coding
Продолжительность : 1 ч. 24 м.
Битрейт : 3939 Кбит/сек
Ширина : 1280 пикселей
Высота : 546 пикселя
Соотношение сторон : 2,40:1
Режим частоты кадров : Постоянный
Частота кадров : 25,000 кадров/сек
Цветовое пространство : YUV
Субдискретизация насыщенности : 4:2:0
Битовая глубина : 8 бит
Тип развёртки : Прогрессивная
Бит/(Пиксели*Кадры) : 0.309
Размер потока : 2,34 Гбайт (96%)
Заголовок : Core Media Video
Язык : English
Дата кодирования : UTC 2016-03-07 04:56:32
Дата пометки : UTC 2016-03-07 04:56:42
Цветовой диапазон : Limited
Основные цвета : BT.709
Характеристики трансфера : BT.709
Коэффициенты матрицы : BT.709
Видео #2
Идентификатор : 13
Формат : JPEG
Идентификатор кодека : jpeg
Продолжительность : 1 ч. 24 м.
Вид битрейта : Переменный
Битрейт : 1180 бит/сек
Ширина : 640 пикселей
Высота : 267 пикселей
Соотношение сторон : 1,85:1
Режим частоты кадров : Переменный
Частота кадров : 0,001 кадр/сек
Минимальная частота кадров : 0,001 кадр/сек
Максимальная частота кадров : 0,007 кадр/сек
Цветовое пространство : YUV
Субдискретизация насыщенности : 4:4:4
Битовая глубина : 8 бит
Тип развёртки : Прогрессивная
Метод сжатия : С потерями
Бит/(Пиксели*Кадры) : 6.905
Размер потока : 1008 Кбайт (0%)
Заголовок : Core Media Video
Дата кодирования : UTC 2016-03-07 04:56:32
Дата пометки : UTC 2016-03-07 04:56:42
Аудио
Идентификатор : 2
Формат : AAC
Формат/Информация : Advanced Audio Codec
Профиль формата : LC
Идентификатор кодека : 40
Продолжительность : 1 ч. 24 м.
Продолжительность оригинала : 1 ч. 24 м.
Вид битрейта : Переменный
Битрейт : 151 Кбит/сек
Максимальный битрейт : 266 Кбит/сек
Каналы : 2 канала
Расположение каналов : Front: L R
Частота : 48,0 КГц
Частота кадров : 46,875 кадров/сек (1024 spf)
Метод сжатия : С потерями
Размер потока : 91,9 Мбайт (4%)
Размер потока оригинала : 91,9 Мбайт (4%)
Заголовок : Core Media Audio
Язык : Dutch
Default : Да
Alternate group : 1
Дата кодирования : UTC 2016-03-07 04:56:32
Дата пометки : UTC 2016-03-07 04:56:42
Menus : 14
Текст #1
Идентификатор : 3
Формат : Timed Text
Режим смешивания : sbtl
Идентификатор кодека : tx3g
Продолжительность : 1 ч. 22 м.
Вид битрейта : Переменный
Битрейт : 34 бит/сек
Размер потока : 20,5 Кбайт (0%)
Заголовок : Core Media Subtitle
Язык : Dutch
Default : Да
Forced : Да
Alternate group : 2
Дата кодирования : UTC 2016-03-07 04:56:32
Дата пометки : UTC 2016-03-07 04:56:42
Текст #2
Идентификатор : 4
Формат : Timed Text
Режим смешивания : sbtl
Идентификатор кодека : tx3g
Продолжительность : 1 ч. 18 м.
Вид битрейта : Переменный
Битрейт : 45 бит/сек
Размер потока : 26,0 Кбайт (0%)
Заголовок : Core Media Subtitle
Язык : English
Default : Нет
Forced : Нет
Alternate group : 2
Дата кодирования : UTC 2016-03-07 04:56:32
Дата пометки : UTC 2016-03-07 04:56:42
Текст #3
Идентификатор : 5
Формат : Timed Text
Режим смешивания : sbtl
Идентификатор кодека : tx3g
Продолжительность : 1 ч. 22 м.
Вид битрейта : Переменный
Битрейт : 73 бит/сек
Размер потока : 43,8 Кбайт (0%)
Заголовок : Core Media Subtitle
Язык : Spanish
Default : Нет
Forced : Нет
Alternate group : 2
Дата кодирования : UTC 2016-03-07 04:56:32
Дата пометки : UTC 2016-03-07 04:56:42
Текст #4
Идентификатор : 6
Формат : Timed Text
Режим смешивания : sbtl
Идентификатор кодека : tx3g
Продолжительность : 1 ч. 22 м.
Вид битрейта : Переменный
Битрейт : 75 бит/сек
Размер потока : 45,3 Кбайт (0%)
Заголовок : Core Media Subtitle
Язык : Spanish
Default : Нет
Forced : Нет
Alternate group : 2
Дата кодирования : UTC 2016-03-07 04:56:32
Дата пометки : UTC 2016-03-07 04:56:42
Текст #5
Идентификатор : 7
Формат : Timed Text
Режим смешивания : sbtl
Идентификатор кодека : tx3g
Продолжительность : 1 ч. 22 м.
Вид битрейта : Переменный
Битрейт : 79 бит/сек
Размер потока : 47,3 Кбайт (0%)
Заголовок : Core Media Subtitle
Язык : French
Default : Нет
Forced : Нет
Alternate group : 2
Дата кодирования : UTC 2016-03-07 04:56:32
Дата пометки : UTC 2016-03-07 04:56:42
Текст #6
Идентификатор : 8
Формат : Timed Text
Режим смешивания : sbtl
Идентификатор кодека : tx3g
Продолжительность : 1 ч. 22 м.
Вид битрейта : Переменный
Битрейт : 74 бит/сек
Размер потока : 44,4 Кбайт (0%)
Заголовок : Core Media Subtitle
Язык : Portuguese
Default : Нет
Forced : Нет
Alternate group : 2
Дата кодирования : UTC 2016-03-07 04:56:32
Дата пометки : UTC 2016-03-07 04:56:42
Текст #7
Идентификатор : 9
Формат : Timed Text
Режим смешивания : sbtl
Идентификатор кодека : tx3g
Продолжительность : 1 ч. 22 м.
Вид битрейта : Переменный
Битрейт : 69 бит/сек
Размер потока : 41,7 Кбайт (0%)
Заголовок : Core Media Subtitle
Язык : Italian
Default : Нет
Forced : Нет
Alternate group : 2
Дата кодирования : UTC 2016-03-07 04:56:32
Дата пометки : UTC 2016-03-07 04:56:42
Текст #8
Идентификатор : 10
Формат : Timed Text
Режим смешивания : sbtl
Идентификатор кодека : tx3g
Продолжительность : 1 ч. 22 м.
Вид битрейта : Переменный
Битрейт : 73 бит/сек
Размер потока : 44,3 Кбайт (0%)
Заголовок : Core Media Subtitle
Язык : German
Default : Нет
Forced : Нет
Alternate group : 2
Дата кодирования : UTC 2016-03-07 04:56:32
Дата пометки : UTC 2016-03-07 04:56:42
Текст #9
Идентификатор : 11
Формат : Timed Text
Режим смешивания : sbtl
Идентификатор кодека : tx3g
Продолжительность : 1 ч. 22 м.
Вид битрейта : Переменный
Битрейт : 99 бит/сек
Размер потока : 59,6 Кбайт (0%)
Заголовок : Core Media Subtitle
Язык : Russian
Default : Нет
Forced : Нет
Alternate group : 2
Дата кодирования : UTC 2016-03-07 04:56:32
Дата пометки : UTC 2016-03-07 04:56:42
Меню
Идентификатор : 14
Идентификатор кодека : text
Продолжительность : 1 ч. 24 м.
Дата кодирования : UTC 2016-03-24 07:23:12
Дата пометки : UTC 2016-03-24 07:23:12
Вид битрейта : CBR
Menu For : 2
00:00:00.000 : 1
00:13:36.880 : 2
00:27:53.960 : 3
00:42:18.360 : 4
00:55:49.280 : 5ф
01:10:02.120 : 6
01:22:22.520 : 7
Скриншоты
Зарегистрирован:
  • 24-Мар-16 11:15
  • Скачан: 206 раз

Скачать .torrent

13 KB

Тип: обычная
Статус: ? недооформлено
Размер: 2.43 GB  ·  magnet8F80ACF1C36CA035307C96EFA8D4D12A14CABBF3
  • Свернуть поддиректории
  • Развернуть
  • Переключить
  • Увел./умен. окно
загружается...

I-RybakOFF

Стаж: 5 лет 5 месяцев

Сообщений: 1

flag

I-RybakOFF · 26-Мар-16 08:28 (спустя 1 день 21 час)

А где раздача?

yv_apple

Moderator

Стаж: 8 лет 5 месяцев

Сообщений: 5559

flag

yv_apple · 29-Мар-16 10:20 (спустя 3 дня)

fd3
? недооформлено - нет iTunes Meta Tags — под отдельным спойлером в теге pre или code. Мета-тэги удобно копируются из программ Subler (OS X) и MkvToMp4 (Windows)
И откуда источник? И точно удалены все данные о покупателе ownr: R3hab EDM?
 
All rights reserved © 2017-2018
Loading...
Error