ѕриключени€ желтого чемоданчика (»ль€ ‘рэз) [1970, детский, SATRip]

—татистика раздачи
–азмер:  1.35 GB   |   «арегистрирован:  4 года 6 мес€цев   |   .torrent скачан:  8,097 раз
—иды:  39
јвтор
—ообщение

Vova468

—таж: 8 лет 2 мес€ца

—ообщений: 143

flag

Vova468 · 02-ћай-14 21:17 (4 года 6 мес€цев назад, ред. 03-ћай-14 06:48)

 

ѕриключени€ желтого чемоданчика
∆анр: детский
√од выпуска: 1970
ѕродолжительность: 01:14:02
–ежиссЄр: »ль€ ‘рэз
¬ рол€х: “ать€на ѕельтцер, ≈вгений Ћебедев, Ќаталь€ —елезнЄва, Ѕорис Ѕыстров, Ћариса “ихонова, ¬иктор “ихонов, ≈вгений ¬есник,  онстантин  унтышев, јндрей √ромов, ¬иктори€ „ернакова
ќписание: Ђѕриключени€ жЄлтого чемоданчикаї - детский фильм-сказка. ѕо стечению обсто€тельств чемоданчик жЄлтого цвета с необыкновенными лекарствами попал в чужие руки, в результате чего под угрозой оказались жизни бабушки “омы, лЄтчика ¬ерЄвкина (папы “омы), дрессировщика тигров Ѕуланкина. ƒети и взрослые в погоне за желтым чемоданчиком станов€тс€ участниками увлекательных и драматических событий ...
»сходник:http://GOSTRACKER.XYZ/viewtopic.php?t=4621940
—емпл:http://sendfile.su/974948
 ачество видео: SATRip
‘ормат видео: AVI
¬идео: 688x384 (1.79:1), 25 fps, XviD build 64 ~2399 kbps avg, 0.36 bit/pixel
јудио: 48 kHz, AC3 Dolby Digital, 2/0 (L,R) ch, ~192 kbps
MediaInfo
General
Complete name : C:\Users\samsung\Videos\ѕриключени€ желтого чемоданчика. SATRip(1970).avi
Format : AVI
Format/Info : Audio Video Interleave
File size : 1.35 GiB
Duration : 1h 14mn
Overall bit rate : 2 601 Kbps
Writing library : VirtualDub build 35390/release
Video
ID : 0
Format : MPEG-4 Visual
Format profile : Advanced Simple@L5
Format settings, BVOP : No
Format settings, QPel : No
Format settings, GMC : No warppoints
Format settings, Matrix : Custom
Codec ID : XVID
Codec ID/Hint : XviD
Duration : 1h 14mn
Bit rate : 2 399 Kbps
Width : 688 pixels
Height : 384 pixels
Display aspect ratio : 16:9
Frame rate : 25.000 fps
Color space : YUV
Chroma subsampling : 4:2:0
Bit depth : 8 bits
Scan type : Progressive
Bits/(Pixel*Frame) : 0.363
Stream size : 1.24 GiB (92%)
Writing library : XviD 64
Audio
ID : 1
Format : AC-3
Format/Info : Audio Coding 3
Mode extension : CM (complete main)
Codec ID : 2000
Duration : 1h 14mn
Bit rate mode : Constant
Bit rate : 192 Kbps
Channel(s) : 2 channels
Channel positions : Front: L R
Sampling rate : 48.0 KHz
Bit depth : 16 bits
Stream size : 102 MiB (7%)
Alignment : Aligned on interleaves
Interleave, duration : 40 ms (1.00 video frame)
Interleave, preload duration : 512 ms
—криншоты
—равнение
«арегистрирован:
  • 02-ћай-14 21:17
  • —качан: 8,097 раз

—качать .torrent

14 KB

“ип: обычна€
—татус: проверено
–азмер: 1.35 GB  ·  magnet2A3E3A4594118177EC8E92BD85451EFFF5D2DD02
  • —вернуть поддиректории
  • –азвернуть
  • ѕереключить
  • ”вел./умен. окно
загружаетс€...

Alexandr56a

—таж: 8 лет 11 мес€цев

—ообщений: 27

flag

Alexandr56a · 29-»юл-14 19:08 (спуст€ 2 мес€ца 26 дней)

∆уть. «вук где?

Vova468

—таж: 8 лет 2 мес€ца

—ообщений: 143

flag

Vova468 · 16-Ќо€-14 22:40 (спуст€ 3 мес€ца 18 дней)

Alexandr56a писал(а):
64686716∆уть. «вук где?
„то то у человека плохой слух или крутой юмор

Dinass

—таж: 8 лет 8 мес€цев

—ообщений: 1

flag

Dinass · 06-ћар-16 12:26 (спуст€ 1 год 3 мес€ца)

” человека все нормально со слухом.
«вука на бытовых плеере и он-лайм приставке нет. ѕри просмотре на компьютере в VLC-плеере есть.

vovikz

—таж: 12 лет 4 мес€ца

—ообщений: 511


vovikz · 09-јпр-16 17:23 (спуст€ 1 мес€ц 3 дн€)

ќтличный фильм. ¬едь можно и без драконов/злых волшебников создать прекрасную поучительную сказку!
ќгромное спасибо!!!

Adversary

—таж: 9 мес€цев

—ообщений: 294

flag

Adversary · 20-—ен-18 15:20 (спуст€ 2 года 5 мес€цев)

—амое веселое в том, что советские зрители даже не думали, просто мысли даже такие у них не возникали, что доктор просто пичкает всех наркотиками, жидкими и в виде конфет...))
 
All rights reserved © 2017-2018
Loading...
Error