Люди в черном 2 / Men in Black II (Барри Зонненфельд / Barry Sonnenfeld) [2002, США, фантастика, боевик, комедия, WEB-DLRip 2160p] Dub (Blu-ray CEE) + MVO (Карусель) + VO (П. Гланц) + 2x AVO (Гаврилов, Живов) + Ukr + Original Eng + Sub Rus, Eng

Статистика раздачи
Размер:  33.29 GB   |   Зарегистрирован:  3 года   |   .torrent скачан:  2,192 раза
Сиды:  7
Автор
Сообщение

_IDKFA_

Стаж: 10 лет 7 месяцев

Сообщений: 106

flag

_IDKFA_ · 08-Ноя-15 20:44 (3 года назад, ред. 16-Ноя-15 23:45)

 

Люди в черном 2 / Men in Black II
Страна: США
Студия: Amblin Entertainment, Columbia Pictures Corporation, MacDonald/Parkes Productions
Жанр: Фантастика, Боевик, Комедия
Год выпуска: 2002
Продолжительность: 01:28:12
Перевод 1: Профессиональный (дублированный) Blu-ray CEE
Перевод 2: Профессиональный (многоголосый закадровый) Карусель
Перевод 3: Студийный (одноголосый закадровый) П. Гланц
Перевод 4: Авторский (одноголосый закадровый) А. Гаврилов
Перевод 5: Авторский (одноголосый закадровый) Ю. Живов
Субтитры: русские
Оригинальная аудиодорожка: английский
Режиссер: Барри Зонненфельд
В ролях: Томми Ли Джонс, Уилл Смит, Лара Флинн Бойл, Джонни Ноксвил, Розарио Доусон, Тони Шэлуб, Рип Торн, Патрик Варбертон, Джек Келер, Дэвид Кросс
Описание: Много лет назад лучший агент организации «Люди в черном» Кей получил задание особой важности. Ему поручили надёжно спрятать таинственный космический артефакт «Светоч». Проходит 25 лет и на Землю прилетает уничтожительница миров Серлина. Приняв образ сексапильной фотомодели, она начала поиски «Светоча». Чтобы не дать ни единого шанса Серлине артефакт нужно отыскать раньше неё, но есть одна проблема - после того как агенты Кей и Джей уничтожили четыре года назад хищного инопланетного таракана, Кею стёрли память. Теперь он мирно трудится в Почтовом департаменте. У него нет даже малейшего воспоминания о своём прошлом, и Джею, для спасения мира, во чтобы то ни стало нужно найти способ восстановить его память.
Дополнительное описание:

Сэмпл: https://yadi.sk/i/pwynJnGBkJrjz
Сравнение с Blu-ray: http://screenshotcomparison.com/comparison/149784
Исходник: ULTRAHDCLUB
Тип релиза: WEB-DLRip 2160p
Контейнер: MKV
Видео: 3840x2076 (1.85:1), 23,976 fps, 50 Mbps, 0.262 bits/(pixel*frame)
Аудио: 48 kHz, AC3 Dolby Digital, 3/2 (L,C,R,l,r) + LFE ch, ~640.00 kbps avg | DUB, Blu-ray CEE
Аудио 2: 48 kHz, AC3 Dolby Digital, 3/2 (L,C,R,l,r) + LFE ch, ~640.00 kbps avg | MVO, Карусель
Аудио 3: 48 kHz, AC3 Dolby Digital, 3/2 (L,C,R,l,r) + LFE ch, ~640.00 kbps avg | AVO, П. Гланц
Аудио 4: 48 kHz, AC3 Dolby Digital, 3/2 (L,C,R,l,r) + LFE ch, ~640.00 kbps avg | AVO, А. Гаврилов
Аудио 5: 48 kHz, AC3 Dolby Digital, 3/2 (L,C,R,l,r) + LFE ch, ~640.00 kbps avg | AVO Ю. Живов
Аудио 6: 48 kHz, AC3 Dolby Digital, 2 ch, ~192.00 kbps avg | DVO 1+1 (украинский)
Аудио 7: 48 kHz, AC3 Dolby Digital, 3/2 (L,C,R,l,r) + LFE ch, ~640.00 kbps avg | Английский
Формат субтитров: softsub (SRT)
MediaInfo
General
Unique ID : 244646072089201056490985478869594837985 (0xB80D1E9E315D7F35B3A69314AD4293E1)
Complete name : G:\Люди в черном\Люди в черном 2 (2002, WEB-DLRip 2160).mkv
Format : Matroska
Format version : Version 4 / Version 2
File size : 33.3 GiB
Duration : 1h 28mn
Overall bit rate : 54.0 Mbps
Encoded date : UTC 2015-11-01 21:18:31
Writing application : mkvmerge v8.2.0 ('World of Adventure') 64bit
Writing library : libebml v1.3.1 + libmatroska v1.4.2
DURATION : 01:20:00.754000000
NUMBER_OF_FRAMES : 1030
NUMBER_OF_BYTES : 38841
_STATISTICS_WRITING_APP : mkvmerge v8.2.0 ('World of Adventure') 64bit
_STATISTICS_WRITING_DATE_UT : 2015-11-01 21:18:31
_STATISTICS_TAGS : BPS DURATION NUMBER_OF_FRAMES NUMBER_OF_BYTES
Video
ID : 1
Format : AVC
Format/Info : Advanced Video Codec
Format profile : High@L5.2
Format settings, CABAC : Yes
Format settings, ReFrames : 5 frames
Codec ID : V_MPEG4/ISO/AVC
Duration : 1h 28mn
Bit rate : 50.0 Mbps
Width : 3 840 pixels
Height : 2 076 pixels
Display aspect ratio : 1.85:1
Frame rate mode : Constant
Frame rate : 23.976 fps
Color space : YUV
Chroma subsampling : 4:2:0
Bit depth : 8 bits
Scan type : Progressive
Bits/(Pixel*Frame) : 0.262
Stream size : 30.1 GiB (91%)
Writing library : x264 core 148 r2638 7599210
Encoding settings : cabac=1 / ref=5 / deblock=1:-1:-1 / analyse=0x3:0x133 / me=umh / subme=10 / psy=1 / psy_rd=1.00:0.15 / mixed_ref=1 / me_range=24 / chroma_me=1 / trellis=2 / 8x8dct=1 / cqm=0 / deadzone=21,11 / fast_pskip=1 / chroma_qp_offset=-3 / threads=12 / lookahead_threads=2 / sliced_threads=0 / nr=0 / decimate=1 / interlaced=0 / bluray_compat=0 / constrained_intra=0 / bframes=8 / b_pyramid=2 / b_adapt=2 / b_bias=0 / direct=3 / weightb=1 / open_gop=0 / weightp=2 / keyint=250 / keyint_min=23 / scenecut=40 / intra_refresh=0 / rc_lookahead=60 / rc=2pass / mbtree=1 / bitrate=50000 / ratetol=1.0 / qcomp=0.60 / qpmin=0 / qpmax=69 / qpstep=4 / cplxblur=20.0 / qblur=0.5 / vbv_maxrate=300000 / vbv_bufsize=300000 / nal_hrd=none / filler=0 / ip_ratio=1.40 / aq=2:1.00
Default : Yes
Forced : No
Color range : Limited
Matrix coefficients : BT.709
Audio #1
ID : 2
Format : AC-3
Format/Info : Audio Coding 3
Mode extension : CM (complete main)
Format settings, Endianness : Big
Codec ID : A_AC3
Duration : 1h 28mn
Bit rate mode : Constant
Bit rate : 640 Kbps
Channel(s) : 6 channels
Channel positions : Front: L C R, Side: L R, LFE
Sampling rate : 48.0 KHz
Compression mode : Lossy
Delay relative to video : 19ms
Stream size : 404 MiB (1%)
Title : AC3 5.1 @ 640 kbps - DUB, Blu-ray CEE
Language : Russian
Default : Yes
Forced : No
Audio #2
ID : 3
Format : AC-3
Format/Info : Audio Coding 3
Mode extension : CM (complete main)
Format settings, Endianness : Big
Codec ID : A_AC3
Duration : 1h 28mn
Bit rate mode : Constant
Bit rate : 640 Kbps
Channel(s) : 6 channels
Channel positions : Front: L C R, Side: L R, LFE
Sampling rate : 48.0 KHz
Compression mode : Lossy
Stream size : 404 MiB (1%)
Title : AC3 5.1 @ 640 kbps - MVO, Karusel
Language : Russian
Default : No
Forced : No
Audio #3
ID : 4
Format : AC-3
Format/Info : Audio Coding 3
Mode extension : CM (complete main)
Format settings, Endianness : Big
Codec ID : A_AC3
Duration : 1h 28mn
Bit rate mode : Constant
Bit rate : 640 Kbps
Channel(s) : 6 channels
Channel positions : Front: L C R, Side: L R, LFE
Sampling rate : 48.0 KHz
Compression mode : Lossy
Stream size : 404 MiB (1%)
Title : AC3 5.1 @ 640 kbps - AVO, P.Glanz
Language : Russian
Default : No
Forced : No
Audio #4
ID : 5
Format : AC-3
Format/Info : Audio Coding 3
Mode extension : CM (complete main)
Format settings, Endianness : Big
Codec ID : A_AC3
Duration : 1h 28mn
Bit rate mode : Constant
Bit rate : 640 Kbps
Channel(s) : 6 channels
Channel positions : Front: L C R, Side: L R, LFE
Sampling rate : 48.0 KHz
Compression mode : Lossy
Stream size : 404 MiB (1%)
Title : AC3 5.1 @ 640 kbps - AVO, A.Gavrilov
Language : Russian
Default : No
Forced : No
Audio #5
ID : 6
Format : AC-3
Format/Info : Audio Coding 3
Mode extension : CM (complete main)
Format settings, Endianness : Big
Codec ID : A_AC3
Duration : 1h 28mn
Bit rate mode : Constant
Bit rate : 640 Kbps
Channel(s) : 6 channels
Channel positions : Front: L C R, Side: L R, LFE
Sampling rate : 48.0 KHz
Compression mode : Lossy
Stream size : 404 MiB (1%)
Title : AC3 5.1 @ 640 kbps - AVO, Y.Jivov
Language : Russian
Default : No
Forced : No
Audio #6
ID : 7
Format : AC-3
Format/Info : Audio Coding 3
Mode extension : CM (complete main)
Format settings, Endianness : Big
Codec ID : A_AC3
Duration : 1h 28mn
Bit rate mode : Constant
Bit rate : 192 Kbps
Channel(s) : 2 channels
Channel positions : Front: L R
Sampling rate : 48.0 KHz
Compression mode : Lossy
Delay relative to video : 19ms
Stream size : 121 MiB (0%)
Title : AC3 2.0 @ 192 kbps - MVO, 1+1
Language : Ukrainian
Default : No
Forced : No
Audio #7
ID : 8
Format : AC-3
Format/Info : Audio Coding 3
Mode extension : CM (complete main)
Format settings, Endianness : Big
Codec ID : A_AC3
Duration : 1h 28mn
Bit rate mode : Constant
Bit rate : 640 Kbps
Channel(s) : 6 channels
Channel positions : Front: L C R, Side: L R, LFE
Sampling rate : 48.0 KHz
Compression mode : Lossy
Stream size : 404 MiB (1%)
Title : AC3 5.1 @ 640 kbps - Blu-ray CEE
Language : English
Default : No
Forced : No
Text #1
ID : 9
Format : UTF-8
Codec ID : S_TEXT/UTF8
Codec ID/Info : UTF-8 Plain Text
Language : Russian
Default : No
Forced : No
Text #2
ID : 10
Format : UTF-8
Codec ID : S_TEXT/UTF8
Codec ID/Info : UTF-8 Plain Text
Language : English
Default : No
Forced : No
Menu
00:00:00.000 : en:Chapter 1
00:07:01.129 : en:Chapter 2
00:13:20.715 : en:Chapter 3
00:19:05.935 : en:Chapter 4
00:24:23.170 : en:Chapter 5
00:30:41.256 : en:Chapter 6
00:34:59.389 : en:Chapter 7
00:41:55.596 : en:Chapter 8
00:48:13.974 : en:Chapter 9
00:52:32.858 : en:Chapter 10
00:57:32.824 : en:Chapter 11
01:02:34.125 : en:Chapter 12
01:06:20.434 : en:Chapter 13
01:10:30.059 : en:Chapter 14
01:13:54.845 : en:Chapter 15
01:16:02.475 : en:Chapter 16
Знаете ли вы, что...
• Съёмки фильма начались в июне 2001 года в Нью-Йорке и были окончены в октябре того же года.
• Девочку на почте сыграла дочь Барри Зонненфельда.
• Фамке Янссен должна была сыграть Серлину, и даже снялась в нескольких эпизодах, но смерть в семье заставила её покинуть проект.
• В эпизодических ролях снялись сыновья Уилла Смита и дочь Томми Ли Джонса, а также такие звезды, как Шакил О’Нил, Тайгер Вудс, Венус Уильямс и даже Майкл Джексон.
• Изначально в финальной сцене фильма фигурировали здания Всемирного Торгового Центра, однако после трагических событий 11 сентября 2001 их изображение было заменено изображением здания Крайслер-билдинг.
• Конец фильма пародирует конец первого, где наша галактика оказывается всего-лишь одним из многих шариков для детской игры исполинских инопланетян.
Ошибки в фильме
• В первой части фильма у Джека Джибса косил правый глаз, во второй — левый.
• В сцене, где Джей и Кей общаются с расой крошечных существ живущих в камере хранения. Кей забирает у них свои электронные часы, бывшие святыней для пришельцев и стоявшие в центре площади. Чтобы последние не огорчались, Джей оставляет им свои часы. Через несколько секунд диалога в кадре снова площадь с часами, где всё ещё часы Кея.
Дополнительная информация
Сохранены оригинальные главы как на Blu-ray.
Гланц не озвучил несколько фраз, добавлено из Карусели.
Живов не озвучил около 50 секунд разговора, добавлено из Гаврилова.
Перевод в дубляже и Карусели идентичен, отличия в голосах.
Скриншоты
Все фильмы трилогии:
Люди в черном / Men in Black (1997) WEB-DLRip 2160p
Люди в черном 2 / Men in Black II (2002) WEB-DLRip 2160p
Люди в черном 3 / Men in Black III (2012) WEB-DLRip 2160p
Зарегистрирован:
  • 08-Ноя-15 20:44
  • Скачан: 2,192 раза

Скачать .torrent

42 KB

Тип: обычная
Статус: проверено
Размер: 33.29 GB  ·  magnet2F89943ADFB1061338D1F429EEC40E597FD6AE98
  • Свернуть поддиректории
  • Развернуть
  • Переключить
  • Увел./умен. окно
загружается...

Alexvolk1

Стаж: 6 лет

Сообщений: 8

flag

Alexvolk1 · 26-Мар-16 11:39 (спустя 4 месяца 17 дней)

Вроде комп не слабый,а тормоза на шести плеерах.Ай5,8 оперативы

otolyasha

Стаж: 9 лет 6 месяцев

Сообщений: 20

flag

otolyasha · 30-Мар-16 14:48 (спустя 4 дня)

Alexvolk1 писал(а):
70341511Вроде комп не слабый,а тормоза на шести плеерах.Ай5,8 оперативы
Более менее приличная видяха должна такое переваривать на ура. В плеере д.б. выставлено hardware accelaration (h/w)

maxdecom

Стаж: 11 лет 7 месяцев

Сообщений: 9


maxdecom · 05-Июн-16 16:33 (спустя 2 месяца 6 дней)

А в HEVC кодеке нет случайно уже ?
 
All rights reserved © 2017-2018
Loading...
Error