Steps Ahead Reunion Tour (Mike Mainieri, Eliane Elias, Donny McCaslin, Marc Johnson, Billy Kilson) - Heineken Jazzaldia 2016 [2016, Post-Bop / Contemporary Jazz / Jazz Fusion, SATRip]

Статистика раздачи
Размер:  1.44 GB   |   Зарегистрирован:  2 года 2 месяца   |   .torrent скачан:  420 раз
Сиды:  2
Автор
Сообщение

readab

Releaser

Стаж: 10 лет 7 месяцев

Сообщений: 3998

flag

readab · 02-Сен-16 19:50 (2 года 2 месяца назад, ред. 21-Июн-17 11:29)

 

Steps Ahead Reunion Tour
Heineken Jazzaldia 2016



Страна исполнителя: USA
Жанр: Post-Bop / Contemporary Jazz / Jazz Fusion
Продолжительность: 01:13:56
Год выпуска: 2016
Musicians:
Mike Mainieri - vibraphone
Eliane Elias - piano
Donny McCaslin - tenor sax
Marc Johnson - double bass
Billy Kilson - drums
Треклист:
Track List:
- Bowing to Bud (Eliane Elias)
- Pools (cut) (Don Grolnick)
- Copland (Aaron Copland/Mike Mainieri)
- B is for Butterfly (Eliane Elias)
- The Time is Now ( ? ) incl... piano intro
- Bass Solo... Drum Solo
- Lush Life (Billy Strayhorn)
- Union Pacific (Mark Johnson)
Доп. информация:
51 Heineken Jazzaldia, July 24th 2016, Plaza de la Trinidad, Donosti
Steps Ahead Reunion Tour - Heineken Jazzaldia 2016 heinekenjazzaldia.com
Steps Ahead from Wikipedia, the free encyclopedia
Mike Mainieri from Wikipedia, the free encyclopedia
Mike Mainieri Official Site
Eliane Elias from Wikipedia, the free encyclopedia
Eliane Elias Official Site
Для создания релиза использован материал уважаемого capdepinyol ~ dimeadozen ...
Спасибо ему большое !!! Качество: SATRip
Контейнер: MPG
Видео кодек: MPEG2
Аудио кодек: MP2
Видео: 2 541 Kbps, 720*576 (16:9), at 25.000 fps, MPEG Video (PAL) (Version 2) (Main@Main) (CustomMatrix / BVOP)
Аудио: 192 Kbps, 48.0 KHz, 2 channels, MPEG Audio (Version 1) (Layer 2)
MediaInfo
General
Complete name : C:\GOSTRACKER.XYZ_mpg\Steps Ahead Reunion Tour - Heineken Jazzaldia 2016.mpg
Format : MPEG-PS
File size : 1.44 GiB
Duration : 1h 13mn
Overall bit rate mode : Variable
Overall bit rate : 2 788 Kbps
Video
ID : 224 (0xE0)
Format : MPEG Video
Format version : Version 2
Format profile : Main@Main
Format settings, BVOP : Yes
Format settings, Matrix : Custom
Format settings, GOP : Variable
Duration : 1h 13mn
Bit rate mode : Variable
Bit rate : 2 541 Kbps
Maximum bit rate : 6 500 Kbps
Width : 720 pixels
Height : 576 pixels
Display aspect ratio : 16:9
Frame rate : 25.000 fps
Standard : PAL
Color space : YUV
Chroma subsampling : 4:2:0
Bit depth : 8 bits
Scan type : Interlaced
Scan order : Top Field First
Compression mode : Lossy
Bits/(Pixel*Frame) : 0.245
Time code of first frame : 00:00:00:00
Time code source : Group of pictures header
Stream size : 1.31 GiB (91%)
Color primaries : BT.601 PAL
Transfer characteristics : BT.470 System B, BT.470 System G
Matrix coefficients : BT.601
Audio
ID : 192 (0xC0)
Format : MPEG Audio
Format version : Version 1
Format profile : Layer 2
Duration : 1h 13mn
Bit rate mode : Constant
Bit rate : 192 Kbps
Channel(s) : 2 channels
Sampling rate : 48.0 KHz
Compression mode : Lossy
Stream size : 102 MiB (7%)
Menu
Зарегистрирован:
  • 02-Сен-16 19:50
  • Скачан: 420 раз

Скачать .torrent

15 KB

Тип: обычная
Статус: проверено
Размер: 1.44 GB  ·  magnetA1E03424CA4FE81D79925C35F5E78FC83F150869
  • Свернуть поддиректории
  • Развернуть
  • Переключить
  • Увел./умен. окно
загружается...
Why does my heart feel so bad? Why does my soul feel so bad? ...
 
All rights reserved © 2017-2018
Loading...
Error