Почему пал Древний Египет? / Why Ancient Egypt Fell (Габриэлла Поллетта / Gabriella Polletta) [2008, документальный, HDTV 1080i]

Статистика раздачи
Размер:  3.92 GB   |   Зарегистрирован:  1 год 11 месяцев   |   .torrent скачан:  1,440 раз
Сиды:  4   Личи:  1
Автор
Сообщение

Last Battle

Top User 06

Стаж: 11 лет 5 месяцев

Сообщений: 755

flag

Last Battle · 20-Ноя-16 00:27 (1 год 11 месяцев назад, ред. 20-Ноя-16 00:29)

 

Почему пал Древний Египет? / Why Ancient Egypt Fell
Год выпуска: 2008
Страна: Великобритания
Студия: IWC Media Productions
Жанр: документальный
Продолжительность: 00:42:00
Перевод: Одноголосый закадровый
Русские субтитры: нет
Режиссер: Габриэлла Поллетта / Gabriella Polletta
Описание: Более 4000 лет назад древнее царство Египта было величайшей цивилизацией на Земле. Фараоны правили процветающей империей, а колоссальные пирамиды господствовали над линией горизонта. Но на вершине своей мощи эта могучая империя пала, оставив после себя одну из величайших загадок древнего мира. Как это случилось и почему? Согласно новой теории, выдвинутой учеными, причиной упадка египетской империи могло быть глобальное потепление...
Доп. информация: Релиз
и
Сведение русской дорожки и автор постера - nyctalus
Сэмпл: http://multi-up.com/1127640
Тип релиза: HDTV 1080i
Контейнер: TS
Видео: 1920x1080 at 29.970 fps, MPEG-2, ~12.1 Mbps avg
Аудио: Русский: 48 kHz, AC3, 2/0 (L,R) ch, ~192.00 kbps avg |Одноголосый закадровый|
Аудио 2: English: 48 kHz, AC3, 3/2 (L,C,R,l,r) + LFE ch, ~384.00 kbps avg
MediaInfo
Общее
Идентификатор : 1 (0x1)
Полное имя : Why.Ancient.Egypt.Fell.(2008).1080i.HDTV.Rus.Eng_HDClub.ts
Формат : MPEG-TS
Размер файла : 3,92 Гбайт
Продолжительность : 42 м.
Режим общего битрейта : Переменный
Общий поток : 13,3 Мбит/сек
Максимальный общий битрейт : 35,5 Мбит/сек
Видео
Идентификатор : 4113 (0x1011)
Идентификатор меню : 1 (0x1)
Формат : MPEG Video
Версия формата : Version 2
Профиль формата : Main@High
Параметр BVOP формата : Да
Параметр матрицы формата : Выборочная
Параметр GOP формата : Variable
Структура изображения : Frame
Идентификатор кодека : 2
Продолжительность : 42 м.
Вид битрейта : Переменный
Битрейт : 12,1 Мбит/сек
Максимальный битрейт : 18,0 Мбит/сек
Ширина : 1920 пикселей
Высота : 1080 пикселей
Соотношение сторон : 16:9
Частота кадров : 29,970 кадров/сек
Стандарт вещания : Component
Цветовое пространство : YUV
Субдискретизация насыщенности : 4:2:0
Битовая глубина : 8 бит
Тип развёртки : Чересстрочная
Порядок развёртки : Верхнее поле первое
Метод сжатия : С потерями
Бит/(Пиксели*Кадры) : 0.195
Временной код первого кадра : 00:00:00;00
Оригинал временного кода : Group of pictures header
GOP, открыто/закрыто : Открыто
GOP, открыто/закрыто на первом кадре : Закрыто
Размер потока : 3,55 Гбайт (91%)
Основные цвета : BT.709
Характеристики трансфера : BT.709
Коэффициенты матрицы : BT.709
Аудио #1
Идентификатор : 4352 (0x1100)
Идентификатор меню : 1 (0x1)
Формат : AC-3
Формат/Информация : Audio Coding 3
Расширение режима : CM (complete main)
Параметр Endianness формата : Big
Идентификатор кодека : 129
Продолжительность : 42 м.
Вид битрейта : Постоянный
Битрейт : 192 Кбит/сек
Каналы : 2 канала
Расположение каналов : Front: L R
Частота : 48,0 КГц
Метод сжатия : С потерями
Размер потока : 57,7 Мбайт (1%)
Язык : Russian
Аудио #2
Идентификатор : 4353 (0x1101)
Идентификатор меню : 1 (0x1)
Формат : AC-3
Формат/Информация : Audio Coding 3
Расширение режима : CM (complete main)
Параметр Endianness формата : Big
Идентификатор кодека : 129
Продолжительность : 42 м.
Вид битрейта : Постоянный
Битрейт : 384 Кбит/сек
Каналы : 6 каналов
Расположение каналов : Front: L C R, Side: L R, LFE
Частота : 48,0 КГц
Метод сжатия : С потерями
Размер потока : 115 Мбайт (3%)
Язык : English
Текст #1
Идентификатор : 4113 (0x1011)-CC1
Идентификатор меню : 1 (0x1)
Формат : EIA-608
Режим смешивания : A/53 / DTVCC Transport
Режим смешивания, доп. информация : Muxed in Video #1
Продолжительность : 42 м.
Вид битрейта : Постоянный
Размер потока : 0,00 байт (0%)
Текст #2
Идентификатор : 4113 (0x1011)-1
Идентификатор меню : 1 (0x1)
Формат : EIA-708
Режим смешивания : A/53 / DTVCC Transport
Режим смешивания, доп. информация : Muxed in Video #1
Продолжительность : 42 м.
Вид битрейта : Постоянный
Размер потока : 0,00 байт (0%)
Скриншоты
Зарегистрирован:
  • 20-Ноя-16 00:27
  • Скачан: 1,440 раз

Скачать .torrent

20 KB

Тип: обычная
Статус: проверено
Размер: 3.92 GB  ·  magnetD2891D24D51B7134036A769C8648AB6808C062E3
  • Свернуть поддиректории
  • Развернуть
  • Переключить
  • Увел./умен. окно
загружается...

Скачал - отдай!
Не будь жлобом, делись с другими
Сиды и пиры с открытым портом приветствуются!
 
All rights reserved © 2017-2018
Loading...
Error