(JPop, Fusion, Electronic) [CD] Haruomi Hosono, Shigeru Suzuki, Tatsuro Yamashita - Pacific - 1978 (2013), FLAC (tracks+.cue), lossless

Статистика раздачи
Размер:  228.9 MB   |   Зарегистрирован:  3 года 2 месяца   |   .torrent скачан:  1,713 раз
Сиды:  22   Личи:  7
Автор
Сообщение

fiks22

Top Seed 08* 5120r

Стаж: 11 лет 1 месяц

Сообщений: 10038

flag

fiks22 · 23-Сен-15 02:24 (3 года 2 месяца назад)

 

Haruomi Hosono, Shigeru Suzuki, Tatsuro Yamashita - Pacific
Жанр: JPop, Fusion, Electronic
Носитель: CD
Страна-производитель диска (релиза): Япония
Год издания: 1978 (2013)
Издатель (лейбл): GT Music/Sony Music Direct (Japan) Inc.
Номер по каталогу: MHCL 30126
Аудиокодек: FLAC (*.flac)
Тип рипа: tracks+.cue
Битрейт аудио: lossless
Продолжительность: 38:38
Источник (релизер): Hakuin (what)
Наличие сканов в содержимом раздачи: нет
Треклист:
01. Saigo no Rakuen (Hosono) - 4:03
02. Coral Reef (Suzuki) - 3:44
03. Nostalgia of Island (Part 1: Wind Bird, Part 2: Walking on the Beach) (Yamashita) - 9:36
04. Slack Key Rhumba (Hosono) - 3:02
05. Passion Flower (Suzuki) - 3:35
06. Noa Noa (Suzuki) - 4:09
07. Kiska (Yamashita) - 5:26
08. Cosmic Surfin' (Hosono) - 5:03
Лог создания рипа
X Lossless Decoder version 20131102 (145.0)
XLD extraction logfile from 2014-03-30 16:56:28 +0900
Various Artists / Pacific (Blu-spec CD 2) : '13 remaster
Used drive : MATSHITA DVD-R UJ-8A8 (revision HB14)
Media type : Pressed CD
Ripper mode : XLD Secure Ripper
Disable audio cache : OK for the drive with a cache less than 1375KiB
Make use of C2 pointers : NO
Read offset correction : 102
Max retry count : 20
Gap status : Analyzed, Appended (except HTOA)
TOC of the extracted CD
Track | Start | Length | Start sector | End sector
---------------------------------------------------------
1 | 00:00:00 | 04:03:00 | 0 | 18224
2 | 04:03:00 | 03:44:36 | 18225 | 35060
3 | 07:47:36 | 09:35:74 | 35061 | 78259
4 | 17:23:35 | 03:01:45 | 78260 | 91879
5 | 20:25:05 | 03:34:38 | 91880 | 107967
6 | 23:59:43 | 04:09:33 | 107968 | 126675
7 | 28:09:01 | 05:25:40 | 126676 | 151090
8 | 33:34:41 | 05:02:39 | 151091 | 173779
AccurateRip Summary (DiscID: 000bf25d-004fabf2-5a090d08)
Track 01 : OK (v2, confidence 1/1)
Track 02 : OK (v2, confidence 1/1)
Track 03 : OK (v2, confidence 1/1)
Track 04 : OK (v2, confidence 1/1)
Track 05 : OK (v2, confidence 1/1)
Track 06 : OK (v2, confidence 1/1)
Track 07 : OK (v2, confidence 1/1)
Track 08 : OK (v2, confidence 1/1)
->All tracks accurately ripped.
All Tracks
Album gain : -7.36 dB
Peak : 1.000000
Statistics
Read error : 0
Jitter error (maybe fixed) : 0
Retry sector count : 0
Damaged sector count : 0
Track 01
Filename : /Volumes/G/Compilations - Pacific (Blu-spec CD 2) : '13 remaster (1978) [FLAC]/01 最後の楽園.flac
Pre-gap length : 00:02:00
Track gain : -5.89 dB
Peak : 1.000000
CRC32 hash (test run) : 90E2171A
CRC32 hash : 90E2171A
CRC32 hash (skip zero) : B8BB6DA0
AccurateRip v1 signature : D8431A61
AccurateRip v2 signature : 8EB21EDC
->Accurately ripped (v2, confidence 1/1)
Statistics
Read error : 0
Jitter error (maybe fixed) : 0
Retry sector count : 0
Damaged sector count : 0
Track 02
Filename : /Volumes/G/Compilations - Pacific (Blu-spec CD 2) : '13 remaster (1978) [FLAC]/02 コーラル・リーフ.flac
Pre-gap length : 00:02:32
Track gain : -7.13 dB
Peak : 1.000000
CRC32 hash (test run) : F92977C8
CRC32 hash : F92977C8
CRC32 hash (skip zero) : 9BD3190E
AccurateRip v1 signature : FB8CAD3C
AccurateRip v2 signature : 08F60913
->Accurately ripped (v2, confidence 1/1)
Statistics
Read error : 0
Jitter error (maybe fixed) : 0
Retry sector count : 0
Damaged sector count : 0
Track 03
Filename : /Volumes/G/Compilations - Pacific (Blu-spec CD 2) : '13 remaster (1978) [FLAC]/03 ノスタルジア・オブ・アイランド (part-1)バード・ウインド (part-2)ウォーキング・オン・ザ・ビーチ.flac
Track gain : -6.46 dB
Peak : 1.000000
CRC32 hash (test run) : C2E800D1
CRC32 hash : C2E800D1
CRC32 hash (skip zero) : A928ACFA
AccurateRip v1 signature : 2E7CB023
AccurateRip v2 signature : 3A6DB4CE
->Accurately ripped (v2, confidence 1/1)
Statistics
Read error : 0
Jitter error (maybe fixed) : 0
Retry sector count : 0
Damaged sector count : 0
Track 04
Filename : /Volumes/G/Compilations - Pacific (Blu-spec CD 2) : '13 remaster (1978) [FLAC]/04 スラック・キー・ルンバ.flac
Pre-gap length : 00:03:37
Track gain : -6.61 dB
Peak : 1.000000
CRC32 hash (test run) : 0BDAEFE3
CRC32 hash : 0BDAEFE3
CRC32 hash (skip zero) : BEF9E0C8
AccurateRip v1 signature : 8C1892B2
AccurateRip v2 signature : 1004C1AE
->Accurately ripped (v2, confidence 1/1)
Statistics
Read error : 0
Jitter error (maybe fixed) : 0
Retry sector count : 0
Damaged sector count : 0
Track 05
Filename : /Volumes/G/Compilations - Pacific (Blu-spec CD 2) : '13 remaster (1978) [FLAC]/05 パッション・フラワー.flac
Pre-gap length : 00:03:18
Track gain : -8.12 dB
Peak : 1.000000
CRC32 hash (test run) : 18F1DD86
CRC32 hash : 18F1DD86
CRC32 hash (skip zero) : 443E45D2
AccurateRip v1 signature : 2F09E948
AccurateRip v2 signature : 09626645
->Accurately ripped (v2, confidence 1/1)
Statistics
Read error : 0
Jitter error (maybe fixed) : 0
Retry sector count : 0
Damaged sector count : 0
Track 06
Filename : /Volumes/G/Compilations - Pacific (Blu-spec CD 2) : '13 remaster (1978) [FLAC]/06 ノアノア.flac
Pre-gap length : 00:03:64
Track gain : -6.17 dB
Peak : 1.000000
CRC32 hash (test run) : E1B8B15D
CRC32 hash : E1B8B15D
CRC32 hash (skip zero) : 79CC22AC
AccurateRip v1 signature : 5A86BCE2
AccurateRip v2 signature : B7C5F257
->Accurately ripped (v2, confidence 1/1)
Statistics
Read error : 0
Jitter error (maybe fixed) : 0
Retry sector count : 0
Damaged sector count : 0
Track 07
Filename : /Volumes/G/Compilations - Pacific (Blu-spec CD 2) : '13 remaster (1978) [FLAC]/07 キスカ.flac
Pre-gap length : 00:03:58
Track gain : -8.08 dB
Peak : 1.000000
CRC32 hash (test run) : 0176FABF
CRC32 hash : 0176FABF
CRC32 hash (skip zero) : 1B6FAC26
AccurateRip v1 signature : E622FB09
AccurateRip v2 signature : 19F391F6
->Accurately ripped (v2, confidence 1/1)
Statistics
Read error : 0
Jitter error (maybe fixed) : 0
Retry sector count : 0
Damaged sector count : 0
Track 08
Filename : /Volumes/G/Compilations - Pacific (Blu-spec CD 2) : '13 remaster (1978) [FLAC]/08 コズミック・サーフィン.flac
Pre-gap length : 00:03:30
Track gain : -8.24 dB
Peak : 1.000000
CRC32 hash (test run) : 343FCEA0
CRC32 hash : 343FCEA0
CRC32 hash (skip zero) : 888B5D04
AccurateRip v1 signature : F9E006FF
AccurateRip v2 signature : 0AFD94DA
->Accurately ripped (v2, confidence 1/1)
Statistics
Read error : 0
Jitter error (maybe fixed) : 0
Retry sector count : 0
Damaged sector count : 0
No errors occurred
End of status report
-----BEGIN XLD SIGNATURE-----
TpzF0y53_sTasb98nu3rNvxds5bcUFpZlRrrHPh_7VBgQ_h.rY9WzAl2AqY_9AGDNX1TqL3pcieASX1HHEqAz_WSs4SMTSSWBz4zAta
-----END XLD SIGNATURE-----
Содержание индексной карты (.CUE)
TITLE "Pacific"
PERFORMER "Haruomi Hosono, Shigeru Suzuki, Tatsuro Yamashita"
REM GENRE "Electronic"
REM DATE "1978"
REM DISCID 5A090D08
REM REPLAYGAIN_ALBUM_GAIN -7.36 dB
REM REPLAYGAIN_ALBUM_PEAK 1.000000
FILE "01 - Saigo no Rakuen.flac" WAVE
TRACK 01 AUDIO
TITLE "Saigo no Rakuen"
ISRC JPSR07804280
REM REPLAYGAIN_TRACK_GAIN -5.89 dB
REM REPLAYGAIN_TRACK_PEAK 1.000000
INDEX 01 00:00:00
TRACK 02 AUDIO
TITLE "Coral Reef"
ISRC JPSR07804290
REM REPLAYGAIN_TRACK_GAIN -7.13 dB
REM REPLAYGAIN_TRACK_PEAK 1.000000
INDEX 00 04:00:43
FILE "02 - Coral Reef.flac" WAVE
INDEX 01 00:00:00
FILE "03 - Nostalgia of Island.flac" WAVE
TRACK 03 AUDIO
TITLE "Nostalgia of Island"
ISRC JPSR07804300
REM REPLAYGAIN_TRACK_GAIN -6.46 dB
REM REPLAYGAIN_TRACK_PEAK 1.000000
INDEX 01 00:00:00
TRACK 04 AUDIO
TITLE "Slack Key Rhumba"
ISRC JPSR07804320
REM REPLAYGAIN_TRACK_GAIN -6.61 dB
REM REPLAYGAIN_TRACK_PEAK 1.000000
INDEX 00 09:32:37
FILE "04 - Slack Key Rhumba.flac" WAVE
INDEX 01 00:00:00
TRACK 05 AUDIO
TITLE "Passion Flower"
ISRC JPSR07804330
REM REPLAYGAIN_TRACK_GAIN -8.12 dB
REM REPLAYGAIN_TRACK_PEAK 1.000000
INDEX 00 02:58:27
FILE "05 - Passion Flower.flac" WAVE
INDEX 01 00:00:00
TRACK 06 AUDIO
TITLE "Noa Noa"
ISRC JPSR07804340
REM REPLAYGAIN_TRACK_GAIN -6.17 dB
REM REPLAYGAIN_TRACK_PEAK 1.000000
INDEX 00 03:30:49
FILE "06 - Noa Noa.flac" WAVE
INDEX 01 00:00:00
TRACK 07 AUDIO
TITLE "Kiska"
ISRC JPSR07804350
REM REPLAYGAIN_TRACK_GAIN -8.08 dB
REM REPLAYGAIN_TRACK_PEAK 1.000000
INDEX 00 04:05:50
FILE "07 - Kiska.flac" WAVE
INDEX 01 00:00:00
TRACK 08 AUDIO
TITLE "Cosmic Surfin'"
ISRC JPSR07804360
REM REPLAYGAIN_TRACK_GAIN -8.24 dB
REM REPLAYGAIN_TRACK_PEAK 1.000000
INDEX 00 05:22:10
FILE "08 - Cosmic Surfin'.flac" WAVE
INDEX 01 00:00:00
Отчет CUETools
[CUETools log; Date: 23.09.2015 1:54:39; Version: 2.1.5]
[CTDB TOCID: nLLT9O52go4dWb7y0IAabR3YcPI-] found.
Track | CTDB Status
1 | (9/9) Accurately ripped
2 | (9/9) Accurately ripped
3 | (9/9) Accurately ripped
4 | (9/9) Accurately ripped
5 | (9/9) Accurately ripped
6 | (9/9) Accurately ripped
7 | (9/9) Accurately ripped
8 | (9/9) Accurately ripped
[AccurateRip ID: 000bf25d-004fabf2-5a090d08] found.
Track [ CRC | V2 ] Status
01 [d8431a61|8eb21edc] (0+3/3) Accurately ripped
02 [fb8cad3c|08f60913] (0+3/3) Accurately ripped
03 [2e7cb023|3a6db4ce] (0+3/3) Accurately ripped
04 [8c1892b2|1004c1ae] (0+3/3) Accurately ripped
05 [2f09e948|09626645] (0+3/3) Accurately ripped
06 [5a86bce2|b7c5f257] (0+3/3) Accurately ripped
07 [e622fb09|19f391f6] (0+3/3) Accurately ripped
08 [f9e006ff|0afd94da] (0+3/3) Accurately ripped
Track Peak [ CRC32 ] [W/O NULL]
-- 100,0 [9F75E87E] [1194F999]
01 100,0 [90E2171A] [B8BB6DA0]
02 100,0 [F92977C8] [9BD3190E]
03 100,0 [C2E800D1] [A928ACFA]
04 100,0 [0BDAEFE3] [BEF9E0C8]
05 100,0 [18F1DD86] [443E45D2]
06 100,0 [E1B8B15D] [79CC22AC]
07 100,0 [0176FABF] [1B6FAC26]
08 100,0 [343FCEA0] [888B5D04]
Об альбоме (сборнике)
A pre-Yellow Magic Orchestra outing for Haruomi Hosono, along with Shigeru Suzuki (formerly of Happy End) and Tatsuro Yamashita (then of Sugar Babe fame, later going on to a successful solo career). Released in 1978, Pacific also features contributions from future YMO members Ryuichi Sakamoto and Yukihiro Takahashi.
Состав
#1
Ryuichi Sakamoto - keyboards, piano, percussion
Hirofumi Tokutake - guitar
Haruomi Hosono - bass, keyboards
Yukihiro Takahashi - drums
Shigeya Hamaguchi - percussion
#2
Jake Concepcion - tenor saxophone
Koji Hadori - trumpet
Eiji Arai - trombone
Ryuichi Sakamoto - piano
Jun Sato - keyboards
Shigeru Suzuki - guitar
Kenji Takamizu - bass
Tatsuo Hayashi - drum, drum machine
Shigeya Hamaguchi - percussion
Yoshihisa Tamano Group - strings
Kayoko Ishu Group - backing vocals
#3
Ryuichi Sakamoto - keyboards
Tatsuro Yamashita - guitar
#4
Ryuichi Sakamoto - piano
Hirofumi Tokutake - electric guitar
Haruomi Hosono - bass, guitar, percussion
Yukihiro Takahashi - drums
Shigeya Hamaguchi - percussion
#5
Fumiharu Murata, Kenji Yoshida, Takehisa Suzuki - trumpet
Sumio Okada - bass trombone
Kazuo Usui, Tomoaki Hashizume - trombone
Ryuichi Sakamoto - piano, glockenspiel
Shigeru Suzuki - guitar
Kenji Takamizu - bass
Tatsuo Hayashi - drums
Shigeya Hamaguchi - percussion, flute
Nobu Saito - percussion
Yoshihisa Tamano Group - strings
Kayoko Ishu Group - backing vocals
#6
Ryuichi Sakamoto - piano
Jun Sato - piano, keyboards
Shigeru Suzuki - acoustic guitar
Kenji Takamizu - bass
Tatsuo Hayashi - drums
Shigeya Hamaguchi - percussion
#7
Hidefumi Toki - alto saxophone, soprano saxophone
Ryuichi Sakamoto - keyboards, piano
Kenji Omura - guitar
Kenji Takamizu - bass
Shuichi Murakami - drums
#8
Ryuichi Sakamoto - piano, keyboards
Haruomi Hosono - keyboards, sequencer
Yukihiro Takahashi - drums
Shigeya Hamaguchi - percussion
Зарегистрирован:
  • 23-Сен-15 02:24
  • Скачан: 1,713 раз

Скачать .torrent

19 KB

Тип: обычная
Статус: проверено
Размер: 228.9 MB  ·  magnet2E477975C362E85ED6B0EF35FC6E5677949FC2B9
  • Свернуть поддиректории
  • Развернуть
  • Переключить
  • Увел./умен. окно
загружается...
МОИ РАЗДАЧИ
Раздачи, перезалитые в рамках замены приватных раздач, сидирую только два месяца. НЕ УХОДИТЕ С РАЗДАЧ!!!

alenka panova

Стаж: 3 года 5 месяцев

Сообщений: 377

flag

alenka panova · 05-Мар-16 21:18 (спустя 5 месяцев 12 дней)

Альбом - шедевр ! Спасибо, Фикс ! Японцы на высоте ! Я бы Курилы отдала за этот диск )))
Для приятных встреч - только диско ! Диско и любовь - всегда вместе !

zonizy

Стаж: 6 лет 1 месяц

Сообщений: 100

flag

zonizy · 20-Авг-16 11:34 (спустя 5 месяцев 14 дней)

Обычно, японцы хорошо копируют стили и манеру игры, на Курилы не тянут. Заинтриговали, сам сейчас качну.

Against all

Стаж: 2 года 7 месяцев

Сообщений: 17


Against all · 02-Янв-17 21:06 (спустя 4 месяца 13 дней)

alenka panova
А я бы тебя отдал.На большее альбом не тянет.
 
All rights reserved © 2017-2018
Loading...
Error