Биатлон. Кубок мира 2002/2003. Этап 2. Эстерсунд (Швеция). Эстафета 4х6 км. Женщины [11.12.2002, Биатлон, VHSRip]

Автор
Сообщение

Spartaк2006

Стаж: 9 лет 10 месяцев

Сообщений: 101

Spartaк2006 · 18-Фев-13 05:11 (5 лет 8 месяцев назад, ред. 18-Фев-13 23:03)

Биатлон. Кубок мира 2002/2003. Этап 2. Эстерсунд (Швеция). Эстафета 4х6 км. Женщины. Eurosport [Биатлон, VHSRip]
Вид спорта: Биатлон
Участники: Все
Дата/Год выпуска: 11.12.2002
Язык комментариев: русский (Сергей Курдюков)
Описание: Женская эстафета, 4х6 км. Этап Кубка Мира в шведском местечке Эстерсунд, который длился с 11 по 15 декабря 2002 года.
В том году была необычайно тёплая осень (со всеми вытекающими), и после 1-го этапа прошедшего в Эстерсунде (Швеция) было принято решение провести здесь же 2-ой этап, который должен был до этого принять словенский Поклюка. Гонки проходили вечером, зачастую при искусственном освещении.
Небольшое лирическое отступление: на третьем этапе за норвежскую сборную выступала молодая спортсменка, некто Тора Бергер. Этап свой закончила можно сказать "за упокой", с двумя штрафными кругами и шестью использованными дополнительными патронами. И вот, прошло 10 лет... )
Очень важная информация о наполнении: отсутствует видео начала гонки почти вплоть до 6 стрельбы (стойка), а так же некоторые фрагменты конца гонки.
Местами проскакивают битые кадры. В промежутке 23:20―24:15 "булькающий" звук из-за попорченной звуковой дорожки, но комментарии можно разобрать.
Качество: VHSRip
Формат видео: TS
Видео: MPEG2 4:3; 720x576; 25fps; 9300kbps (variable)
Аудио: Dolby AC3 2.0 (псевдостерео); 48.0 kHz; 384 kbps
Скриншоты
Media Info
General
ID : 1 (0x1)
Format : MPEG-TS
File size : 2.48 GiB
Duration : 35mn 37s
Overall bit rate mode : Variable
Overall bit rate : 9 979 Kbps
Maximum Overall bit rate : 35.5 Mbps
Video
ID : 4113 (0x1011)
Menu ID : 1 (0x1)
Format : MPEG Video
Format version : Version 2
Format profile : Main@Main
Format settings, BVOP : Yes
Format settings, Matrix : Default
Codec ID : 2
Duration : 35mn 37s
Bit rate mode : Variable
Bit rate : 9 098 Kbps
Maximum bit rate : 9 300 Kbps
Width : 720 pixels
Height : 576 pixels
Display aspect ratio : 4:3
Frame rate : 25.000 fps
Standard : PAL
Color space : YUV
Chroma subsampling : 4:2:0
Bit depth : 8 bits
Scan type : Interlaced
Scan order : Top Field First
Compression mode : Lossy
Bits/(Pixel*Frame) : 0.878
Stream size : 2.26 GiB (91%)
Audio
ID : 4352 (0x1100)
Menu ID : 1 (0x1)
Format : AC-3
Format/Info : Audio Coding 3
Mode extension : CM (complete main)
Codec ID : 129
Duration : 35mn 37s
Bit rate mode : Constant
Bit rate : 384 Kbps
Channel(s) : 2 channels
Channel positions : Front: L R
Sampling rate : 48.0 KHz
Bit depth : 16 bits
Compression mode : Lossy
Stream size : 97.9 MiB (4%)
Продолжительность
0:35:27
Счёт/Итог
(Место - Страна/Спортсменка - Лёжка / Стойка - (Всего) - Время)
1) РОССИЯ _ 0+6 / 0+5 (0+11) _ 1:21:03.2
ЧЕРНОУСОВА Светлана _ 0+2 / 0+2 (0+4)
КУКЛЕВА Галина _ 0+1 / 0+1 (0+2)
МАЛЬГИНА Ирина _ 0+1 / 0+2 (0+3)
ИШМУРАТОВА Светлана _ 0+2 / 0+0 (0+2)
2 ГЕРМАНИЯ _ 0+7 / 3+9 (3+16) _ +2:01.8
БЕК Мартина _ 0+1 / 0+2 (0+3)
ХАУСВАЛЬД Симона _ 0+2 / 3+3 (3+5)
ХЕНКЕЛЬ Андреа _ 0+2 / 0+1 (0+3)
БИР Катя _ 0+2 / 0+3 (0+5)
3) БОЛГАРИЯ _ 0+2 / 1+6 (1+8) _ +2:26.2
КЛЕНОВСКА Нина _ 0+0 / 1+3 (1+3)
ФИЛИПОВА Павлина _ 0+1 / 0+1 (0+2)
ДАФОВСКА Екатерина _ 0+1 / 0+2 (0+3)
КАРАГЁЗОВА Ива _ 0+0 / 0+0 (0+0)
4) НОРВЕГИЯ _ 1+10 / 1+10 (2+20) _ +2:55.3
ГРУББЕН Линда _ 0+3 / 0+1 (0+4)
КРИСТИАНСЕН Гро Мари Иштад _ 0+2 / 0+3 (0+5)
БЕРГЕР Тора _ 1+3 / 1+3 (2+6)
АНДРЕАССЕН Гунн Марит _ 0+2 / 0+3 (0+5)
5) ЧЕХИЯ _ 1+6 / 0+8 (1+14) _ +3:25.8
РЕЗЛЕРОВА Магда _ 1+3 / 0+2 (1+5)
ЧЕСНЕКОВА Ирена _ 0+2 / 0+2 (0+4)
ФАЛТУСОВА Ленка _ 0+0 / 0+3 (0+3)
ХОЛУБЦОВА Катерина _ 0+1 / 0+1 (0+2)
6) СЛОВАКИЯ _ 0+2 / 0+6 (0+8) _ +3:38.5
ПАВКОЦЕКОВА Марцела _ 0+1 / 0+0 (0+1)
МУРИНОВА Анна _ 0+0 / 0+2 (0+2)
ХАСИЛЛОВА Жужана _ 0+0 / 0+1 (0+1)
МИХОКОВА Соня _ 0+1 / 0+3 (0+4)
Download
Для скачивания .torrent файлов необходима регистрация
Сайт не распространяет и не хранит электронные версии произведений, а лишь предоставляет доступ к создаваемому пользователями каталогу ссылок на торрент-файлы, которые содержат только списки хеш-сумм

Игорь Ралько

Стаж: 9 лет 3 месяца

Сообщений: 61


Игорь Ралько · 14-Май-16 00:00 (спустя 3 года 2 месяца)

Видимо гонка не полностью показана? Потому как 35 минут мало для эстафеты. Или тогда так быстро бегали?!

Иван Шевцов

Стаж: 2 года 1 месяц

Сообщений: 6


Иван Шевцов · 19-Окт-16 17:07 (спустя 5 месяцев 5 дней)

Spartaк2006 писал(а):
57947590а гонки почти вплоть до 6 стрельбы
Хочется видео гонок биатлона сезонов 2002/2003, 2003/2004 где наши Белорусы в эстафетах побеждали.
А ещё мужскую эстафету на Чемпионате Мира 1999 по биатлону и женский спринт на Олимпийских Играх 1994.

Иван Шевцов

Стаж: 2 года 1 месяц

Сообщений: 6


Иван Шевцов · 16-Мар-17 15:31 (спустя 4 месяца 27 дней)

Spartaк2006 писал(а):
57947590Хочется видео гонок биатлона сезонов 2002/2003, 2003/2004 где наши Белорусы в эстафетах побеждали.
А ещё мужскую эстафету на Чемпионате Мира 1999 по биатлону и женский спринт на Олимпийских Играх 1994.
 
All rights reserved © 2017-2018
Loading...
Error