Морская академия / High School Fleet / Haifuri / Hai-Furi [TV] [12 из 12] [Без хардсаба] [RUS(ext), JAP, SUB] [2016, Школа, Экшен, Приключения, Военный, HDTVRip] [720p]

Статистика раздачи
Размер:  5.63 GB   |   Зарегистрирован:  2 года 3 месяца   |   .torrent скачан:  340 раз
Сиды:  2
Автор
Сообщение

pcab1829

Стаж: 7 лет 11 месяцев

Сообщений: 1007

flag

pcab1829 · 12-Апр-16 13:37 (2 года 8 месяцев назад, ред. 09-Апр-17 17:58)

 


Морская академия / High School Fleet / Haifuri / Hai-Furi / ハイスクール・フリート
Год выпуска: 2016 г.
Страна: Япония
Жанр: Школа, Экшен, Приключения, Военный
Тип: TV
Продолжительность: 12 эп. по 24 мин.
Режиссер: Нобута Ю
Студия: Production IMS
Перевод:
  1. Русские субтитры от Buka63 & Nachtwandler & Seiya Loveless & Surokune

Озвучка:
  1. Многоголосая от Oni & Oriko & Esther & LonelyDragon (AniDub) -sample

Описание:
Япония — это страна, расположенная в буквальном смысле посреди моря, поэтому процветание японцев в буквальном смысле зависит от состояния морских просторов. После того, как тектонические плиты пришли в движение, и многие страны оказались под водой, потребность в людях, разбирающихся в подводной жизни, резко выросла. Люди, не привыкшие сдаваться на милость природы, основали организацию «Голубых русалок», и теперь юные девушки, любящие море и желающие служить на благо всего человечества, обучаются в специальных школах.
В одной из таких школ, готовящих «голубых русалок», и учатся наши главные героини, Моэке Тина и Акэно Мисаки. Чтобы стать ценными специалистами, способными изменить мир к лучшему, им нужно не только проникнуть в тайны Мирового океана и близко познакомиться с его фауной и флорой, но и овладеть другими знаниями и навыками. Девочки должны изучить обычаи и традиции своей культуры и других народов, полюбить все человечество и стать самыми настоящими гражданками Земли. Их ждет долгий и нелегкий путь, но цель того стоит.
Информационные ссылки: World Art || AniDB || MAL
Качество: HDTVRip | Рип: [Leopard-Raws]
Тип релиза: Без хардсаба
Формат видео: MP4
Наличие линковки: Нет
Видео: AVC, 1280x720, 2728 kbps, 23.976 fps [8 bit]
Аудио
:
1. Russian AC3, 48.0 KHz, 192 kbps, 2 ch (внешние) - [AniDub];
2. Japanese AAC, 48.0 KHz, 192 kbps, 2 ch;
Субтитры:
  1. Russian: ASS, внешние;
Подробные тех. данные
General
Format : MPEG-4
Format profile : Base Media
Codec ID : isom
File size : 502 MiB
Duration : 23mn 59s
Overall bit rate mode : Variable
Overall bit rate : 2 923 Kbps
Encoded date : UTC 2016-04-10 07:40:55
Tagged date : UTC 2016-04-10 07:40:55
Video #1
ID : 1
Format : AVC
Format/Info : Advanced Video Codec
Format profile : High@L4.1
Format settings, CABAC : Yes
Format settings, ReFrames : 4 frames
Codec ID : avc1
Codec ID/Info : Advanced Video Coding
Duration : 23mn 59s
Bit rate : 2 728 Kbps
Maximum bit rate : 13.7 Mbps
Width : 1 280 pixels
Height : 720 pixels
Display aspect ratio : 16:9
Frame rate mode : Constant
Frame rate : 23.976 fps
Color space : YUV
Chroma subsampling : 4:2:0
Bit depth : 8 bits
Scan type : Progressive
Bits/(Pixel*Frame) : 0.123
Stream size : 468 MiB (93%)
Title : 264:fps=23.976@GPAC0.5.1-DEV-rev4929
Writing library : x264 core 129 r2245+729M 1a52e03
Encoding settings : cabac=1 / ref=4 / deblock=1:1:-1 / analyse=0x3:0x113 / me=umh / subme=9 / psy=1 / fade_compensate=0.00 / psy_rd=1.00:0.00 / mixed_ref=1 / me_range=24 / chroma_me=1 / trellis=2 / 8x8dct=1 / cqm=0 / deadzone=21,11 / fast_pskip=1 / chroma_qp_offset=-2 / threads=8 / lookahead_threads=1 / sliced_threads=0 / nr=0 / decimate=1 / interlaced=0 / bluray_compat=0 / constrained_intra=0 / fgo=0 / bframes=9 / b_pyramid=2 / b_adapt=2 / b_bias=0 / direct=1 / weightb=1 / open_gop=0 / weightp=2 / keyint=240 / keyint_min=24 / scenecut=40 / intra_refresh=0 / rc=crf / mbtree=0 / crf=17.0 / qcomp=0.72 / qpmin=0 / qpmax=69 / qpstep=4 / ip_ratio=1.40 / pb_ratio=1.30 / aq=1:0.85
Encoded date : UTC 2016-04-10 07:40:55
Tagged date : UTC 2016-04-10 07:40:58
Color primaries : BT.709
Transfer characteristics : BT.709
Matrix coefficients : BT.709
Audio #2
ID : 2
Format : AAC
Format/Info : Advanced Audio Codec
Format profile : LC
Codec ID : 40
Duration : 23mn 59s
Bit rate mode : Variable
Bit rate : 192 Kbps
Maximum bit rate : 225 Kbps
Channel(s) : 2 channels
Channel positions : Front: L R
Sampling rate : 48.0 KHz
Compression mode : Lossy
Stream size : 32.8 MiB (7%)
Language : Japanese
Encoded date : UTC 2016-04-09 21:20:26
Tagged date : UTC 2016-04-10 07:40:58
Список эпизодов

01. Фатальное первое плавание! / In a Pinch on Our Maiden Voyage!s
02. Фатальная погоня! / In a Pinch During the Pursuit!
03. Фатальная ночная вахта! / In a Pinch in Pajamas!
04. Фатальная прогулка! / Maidens in a Pinch!
05. Фатальная встреча c «Мусаши»! / Pinched by the Musashi!
06. Фатальное разминирование! / In a Mined Pinch!
07. Фатальный шторм! / In a Stormy Pinch!
08. Фатальная встреча с "Хиэй"! / In a Pinch with the Hiei!
09. Фатальное прощание с Миной / Mina in a Pinch!
10. Веселый праздник Нептуна! / Happy at the Equator Festival!
11. Фатальная дуэль главных калибров! / In a Pinch with a Battleship`s Big Cannon!
12. Фатальная решающая битва! / In a Pinch with the Last Battle!
Скриншоты

Обновленные серии


Добавлена Вторая серия [28.04.2016]

Добавлена Третья серия [29.04.2016]

Добавлена Четвертая серия [05.05.2016]

Добавлена Пятая серия [16.05.2016]

Добавлены Шестая, Седьмая, Восьмая и Девятая серии [07.06.2016]

Добавлена Десятая серия [13.06.2016]

Добавлена Одиннадцатая серия [22.06.2016]



Раздача обновлена. Добавлена Двенадцатая серия [28.06.2016]

Зарегистрирован:
  • 15-Сен-16 01:17
  • Скачан: 340 раз

Скачать .torrent

18 KB

Тип: обычная
Статус: T временная
Размер: 5.63 GB  ·  magnet46C0FC26930432D47D39635FD2452C1A33168D49
  • Свернуть поддиректории
  • Развернуть
  • Переключить
  • Увел./умен. окно
загружается...

Rune2501

Стаж: 8 лет 5 месяцев

Сообщений: 238

flag

Rune2501 · 12-Апр-16 18:41 (спустя 5 часов)

Хотел спросить - почему все в QC, а не в HD? Неудобно же искать.

pcab1829

Стаж: 7 лет 11 месяцев

Сообщений: 1007

flag

pcab1829 · 12-Апр-16 18:43 (спустя 2 мин.)

Rune2501
Потому что ни все дабберы из основного списка

Rune2501

Стаж: 8 лет 5 месяцев

Сообщений: 238

flag

Rune2501 · 12-Апр-16 18:49 (спустя 5 мин.)

Цитата:
Rune2501
Потому что ни все дабберы из основного списка
Спасибо что напомнили, буду ждать в HD разделе.

schein79

Стаж: 3 года 1 месяц

Сообщений: 231

flag

schein79 · 12-Апр-16 20:00 (спустя 1 час 10 мин.)

Боязно спрашивать, но - это "Ворлд оф Варшипс"?!!!

Nachtwandler1988

Стаж: 9 лет 6 месяцев

Сообщений: 2758

flag

Nachtwandler1988 · 12-Апр-16 21:54 (спустя 1 час 54 мин., ред. 12-Апр-16 21:54)

Мне больше интересно: какого чёрта сабы наши, а название левое?
schein79
Это смесь Girls und Panzer с Арпеджио. ИМХО.

schein79

Стаж: 3 года 1 месяц

Сообщений: 231

flag

schein79 · 12-Апр-16 22:52 (спустя 57 мин.)

Понятно, длинные руки Варгейминга продолжают тянуться к Японии.

Nachtwandler1988

Стаж: 9 лет 6 месяцев

Сообщений: 2758

flag

Nachtwandler1988 · 13-Апр-16 01:43 (спустя 2 часа 50 мин.)

Ага, а КанКолле тоже Варгейминг придумал...

Dettrit

Стаж: 3 года 10 месяцев

Сообщений: 25

flag

Dettrit · 17-Апр-16 15:52 (спустя 4 дня)

Ну где же следующая серия?!

alex-celly

Стаж: 8 лет 5 месяцев

Сообщений: 272

flag

alex-celly · 16-Май-16 10:18 (спустя 28 дней)

T - временная
Buka63
Я всё-таки влип в онгоинг...

pcab1829

Стаж: 7 лет 11 месяцев

Сообщений: 1007

flag

pcab1829 · 07-Июн-16 19:27 (спустя 22 дня, ред. 07-Июн-16 19:27)

Так и не дождусь я озвучки от AniDub, решил залить сабы

Level14

Стаж: 8 лет

Сообщений: 5

flag

Level14 · 28-Авг-16 19:55 (спустя 2 месяца 21 день)

Так и не понял, сколько серий с озвучкой? 7 или все 12?

pcab1829

Стаж: 7 лет 11 месяцев

Сообщений: 1007

flag

pcab1829 · 15-Сен-16 01:19 (спустя 17 дней)

Добавлена озвучка от AniDub c 6 по 12 серию.

edc124

Стаж: 4 года 8 месяцев

Сообщений: 68

flag

edc124 · 07-Окт-16 05:09 (спустя 22 дня, ред. 07-Окт-16 21:53)

AniDub не перестаёт меня удивлять, реплики и адаптация безупречна. Эталонная работа. Спасибо за раздачу!

#silence#

Стаж: 10 лет 2 месяца

Сообщений: 1954

flag

#silence# · 14-Апр-17 13:49 (спустя 6 месяцев, ред. 28-Май-17 08:12)

Таки wows собирается свиснуть местных персонажей себе. Если в азиатском регионе радость будет неописуемой, флот могут добавить на остальные серваки. Ну а я пришел пощупать, что это за зверь такой.
UPD: мдя, фигня полнейшая. Явно прослеживается клонинг Гирлс-унд-панцу_р, но в отличие от последнего, местное моэ вызывает клиническую форму фейспалм.жопега. ХЗ, может, потому что даже "Катюшу" не спели xD
Не, ну правда. Очень сопливый сериал с неуязвимыми нагибай-тянами.
 
All rights reserved © 2017-2018
Loading...
Error