Карточный Домик / House of Cards / Сезон: 4 / Серии: 1-13 из 13 (Джеймс Фоули, Карл Франклин, Аллен Култер) [2016, США, драма, BDRip 1080p] MVO (Amedia) + Original + Sub (Rus, Eng)

Статистика раздачи
Размер:  80.39 GB   |   Зарегистрирован:  2 года 2 месяца   |   .torrent скачан:  5,291 раз
Сиды:  14   Личи:  1
Автор
Сообщение

CEBEPu2D

Top Loader 04* 1TB

Стаж: 9 лет 1 месяц

Сообщений: 656

flag

CEBEPu2D · 19-Сен-16 17:00 (2 года 2 месяца назад, ред. 20-Сен-16 21:23)

 


Карточный Домик / House of Cards

Год выпуска: 2016
Страна: США
Жанр: Драма
Продолжительность: ~ 00:43:00
Перевод: Профессиональный (многоголосый закадровый) Amedia
Режиссёр: Джеймс Фоули, Карл Франклин, Аллен Култер
В ролях: Кевин Спейси, Робин Райт, Кейт Мара, Кори Столл, Майкл Келли, Сакина Джэффри, Кристен Коннолли, Майкл Гилл, Нэйтан Дарроу, Себастьян Аркелус
Описание: Нашумевший американский телесериал, удостоенный премий «Золотой Глобус», двух премий «Эмми» и многочисленных номинаций, снятый в жанре политической драмы с потрясающими Кевином Спейси и Робин Райт в главных ролях. Продюсерская работа знаменитого режиссера Дэвида Финчера («Бойцовский клуб», «Исчезнувшая»). Фрэнк Андервуд, амбициозный конгрессмен от Демократической партии, оказывает значительную поддержку на выборах будущему президенту США, Гарету Уокеру, в обмен на должность Госсекретаря США. Выборы проходят успешно, но обещанная должность уходит другому. Отныне смысл жизни Фрэнка - расквитаться с каждым, подставившим его, и он способен сломать жизни очень многим высокопоставленным политикам. В политической многоходовке искусному интригану будет помогать его не менее искушенная и циничная супруга. Шантаж, насилие, кровь, интриги и манипуляции - все, что происходит в закрытых кабинетах, и что большая политика так старательно скрывает от своих избирателей, всё это можно увидеть в сериале "Карточный домик".
Релизер и работа со звуком, субтитрами: АКТЕР aka CEBEPu2D
Рип от Z0N3
За исходник звука и сабов: спасибо Nez-у
Озвучка: Amedia
Сохранены оригинальные главы как на Blu-ray.
Все раздачи сериала

Качество: BDRip 1080p
Формат: MKV
Видео: H.264, 1920x960, 23.976 fps, ~16000 kbps, ~0.362 bit/pixel
Аудио Rus: AC3, 48 kHz, 6 ch, 640 kbps |Amedia|
Аудио Eng: DTS 48 kHz, 6 ch, 1509 kbps |Original|
Субтитры: русские, английские

MediaInfo
Полное имя : E:\Loading\House.Of.Cards.S04.Bdrip.1080p.by.AKTEP\House.Of.Cards.S04E08.Bdrip.1080p.by.AKTEP.mkv
Формат : Matroska
Версия формата : Version 4 / Version 2
Размер файла : 5,86 Гбайт
Продолжительность : 46 м.
Общий поток : 18,2 Мбит/сек
Дата кодирования : UTC 2016-09-16 12:24:27
Программа кодирования : mkvmerge v6.2.0 ('Promised Land') built on Apr 28 2013 12:22:01
Библиотека кодирования : libebml v1.3.0 + libmatroska v1.4.0
Видео
Идентификатор : 1
Формат : AVC
Формат/Информация : Advanced Video Codec
Профиль формата : High@L4.1
Параметр CABAC формата : Да
Параметр ReFrames формата : 4 кадра
Идентификатор кодека : V_MPEG4/ISO/AVC
Продолжительность : 46 м.
Битрейт : 16,0 Мбит/сек
Ширина : 1920 пикселей
Высота : 960 пикселей
Соотношение сторон : 2,000
Режим частоты кадров : Постоянный
Частота кадров : 23,976 кадра/сек
Цветовое пространство : YUV
Субдискретизация насыщенности : 4:2:0
Битовая глубина : 8 бит
Тип развёртки : Прогрессивная
Бит/(Пиксели*Кадры) : 0.362
Размер потока : 5,05 Гбайт (86%)
Библиотека кодирования : x264 core 148 r2705+54 9f484c1 t_mod_Custom [8-bit@all X86_64]
Настройки программы : cabac=1 / ref=4 / deblock=1:-3:-3 / analyse=0x3:0x113 / me=umh / subme=11 / psy=1 / fade_compensate=0.00 / psy_rd=1.10:0.00 / mixed_ref=1 / me_range=48 / chroma_me=1 / trellis=2 / 8x8dct=1 / cqm=0 / deadzone=21,11 / fast_pskip=0 / chroma_qp_offset=-2 / threads=12 / lookahead_threads=2 / sliced_threads=0 / nr=0 / decimate=0 / interlaced=0 / bluray_compat=0 / constrained_intra=0 / fgo=0 / bframes=8 / b_pyramid=2 / b_adapt=2 / b_bias=0 / direct=3 / weightb=0 / open_gop=0 / weightp=2 / keyint=240 / keyint_min=23 / scenecut=40 / intra_refresh=0 / rc_lookahead=240 / rc=2pass / mbtree=1 / bitrate=16000 / ratetol=1.0 / qcomp=0.70 / qpmin=0:0:0 / qpmax=69:69:69 / qpstep=4 / cplxblur=20.0 / qblur=0.5 / vbv_maxrate=38000 / vbv_bufsize=30000 / nal_hrd=none / filler=0 / ip_ratio=1.40 / aq=3:1.30 / aq-sensitivity=10.00 / aq-factor=1.00:1.00:1.00 / aq2=1:0.60 / aq2-sensitivity=15.00 / aq2-factor=1.00:1.00:1.00 / aq3=0 / zones=3865,5090,b=2.5/50452,50490,b=2.5
Язык : English
Default : Да
Forced : Нет
Аудио #1
Идентификатор : 2
Формат : AC-3
Формат/Информация : Audio Coding 3
Расширение режима : CM (complete main)
Параметр Endianness формата : Big
Идентификатор кодека : A_AC3
Продолжительность : 46 м.
Вид битрейта : Постоянный
Битрейт : 640 Кбит/сек
Каналы : 6 каналов
Расположение каналов : Front: L C R, Side: L R, LFE
Частота : 48,0 КГц
Битовая глубина : 16 бит
Метод сжатия : С потерями
Размер потока : 211 Мбайт (4%)
Язык : Russian
Default : Да
Forced : Нет
Аудио #2
Идентификатор : 3
Формат : DTS
Формат/Информация : Digital Theater Systems
Режим : 16
Параметр Endianness формата : Big
Идентификатор кодека : A_DTS
Продолжительность : 46 м.
Вид битрейта : Постоянный
Битрейт : 1509 Кбит/сек
Каналы : 6 каналов
Расположение каналов : Front: L C R, Side: L R, LFE
Частота : 48,0 КГц
Битовая глубина : 16 бит
Метод сжатия : С потерями
Размер потока : 498 Мбайт (8%)
Язык : English
Default : Нет
Forced : Нет
Текст #1
Идентификатор : 4
Формат : UTF-8
Идентификатор кодека : S_TEXT/UTF8
Идентификатор кодека/Информация : UTF-8 Plain Text
Язык : Russian
Default : Нет
Forced : Нет
Текст #2
Идентификатор : 5
Формат : UTF-8
Идентификатор кодека : S_TEXT/UTF8
Идентификатор кодека/Информация : UTF-8 Plain Text
Язык : English
Default : Нет
Forced : Нет
Меню
00:00:00.000 : en:Chapter 01
00:03:33.380 : en:Chapter 02
00:08:07.153 : en:Chapter 03
00:18:10.006 : en:Chapter 04
00:27:43.871 : en:Chapter 05
00:38:47.367 : en:Chapter 06
00:43:49.085 : en:Chapter 07
Скриншоты

Обязательно к просмотру:
Карточный Домик / House of Cards 2 сезон BDRip 1080p
Карточный Домик / House of Cards 4 сезон BDRip 1080p
Доктор Хаус / House M.D. 2 сезон Blu-Ray Remux 1080p
Доктор Хаус / House M.D. 3 сезон Blu-Ray Remux 1080р
PS убедительная просьба скачавших оставаться на раздаче подольше, желательно вечно

Зарегистрирован:
  • 19-Сен-16 17:00
  • Скачан: 5,291 раз

Скачать .torrent

103 KB

Тип: обычная
Статус: проверено
Размер: 80.39 GB  ·  magnet8CB4B2D01CC4350564D6F69087D1A8879942392D
  • Свернуть поддиректории
  • Развернуть
  • Переключить
  • Увел./умен. окно
загружается...
Мои раздачи 1080p

Китайский летчик - Схера Ли
Человек культурен настолько, насколько он способен понять кошку.
Сражаюсь с добром за все человечество

CEBEPu2D

Top Loader 04* 1TB

Стаж: 9 лет 1 месяц

Сообщений: 656

flag

CEBEPu2D · 19-Сен-16 17:04 (спустя 4 мин., ред. 20-Сен-16 20:16)

есть и 2 сезон тоже с 6 канальным звуком, будем попозже на замену этой раздаче http://GOSTRACKER.XYZ/viewtopic.php?t=5183525
ну вот и 2 сезон
Карточный Домик / House of Cards 2 сезон BDRip 1080p
Карточный Домик / House of Cards 4 сезон BDRip 1080p
Мои раздачи 1080p

Китайский летчик - Схера Ли
Человек культурен настолько, насколько он способен понять кошку.
Сражаюсь с добром за все человечество

Yuliyatrix

Стаж: 9 лет 8 месяцев

Сообщений: 3279

flag

Yuliyatrix · 01-Ноя-16 13:35 (спустя 1 месяц 12 дней)

Цитата:
71442182В ролях: Кейт Мара
откуда ж она в четвертом сезоне возьмется )
За релиз большое спасибо, сериал прекрасен.
У нас, у русских, две Родины — наша Россия и Европа . ( Ф . М . Достоевский )

CEBEPu2D

Top Loader 04* 1TB

Стаж: 9 лет 1 месяц

Сообщений: 656

flag

CEBEPu2D · 29-Дек-16 17:34 (спустя 1 месяц 28 дней, ред. 29-Дек-16 17:34)

Yuliyatrix писал(а):
71730996
Цитата:
71442182В ролях: Кейт Мара
откуда ж она в четвертом сезоне возьмется )
За релиз большое спасибо, сериал прекрасен.
во флешбэках
Мои раздачи 1080p

Китайский летчик - Схера Ли
Человек культурен настолько, насколько он способен понять кошку.
Сражаюсь с добром за все человечество

CEBEPu2D

Top Loader 04* 1TB

Стаж: 9 лет 1 месяц

Сообщений: 656

flag

CEBEPu2D · 23-Янв-17 21:40 (спустя 25 дней)

https://www.youtube.com/watch?v=5xUZKyPBaR0 тизер 5 сезона.
Мои раздачи 1080p

Китайский летчик - Схера Ли
Человек культурен настолько, насколько он способен понять кошку.
Сражаюсь с добром за все человечество

kbn77w

Стаж: 2 года 5 месяцев

Сообщений: 31

flag

kbn77w · 21-Апр-17 11:01 (спустя 2 месяца 28 дней)

4 сезонтий был ужасен по смыслу
скрытый текст
жена перзидента хотит вице-перзидентом стать, ИГИЛ нарисован маленькой группкой, американцы типа могли спросить Сирию о чём-то, хотя 2016 год, когда снимался сей проект, пиндошки вовсю орудовали в Сирии не спросясь,
типа пердизент договаривается с обычными террорюгами, ещё много, но посмотрите и ужаснитесь сами
Вот думаю, в 5 сезонтии отразят победу трумпа с бабулями республиканца или нет?
 
All rights reserved © 2017-2018
Loading...
Error