(Guitar, Instrumental) [CD] Yoshio Kimura - DENON Best Collection Hi-Fi Acoustic Guitar - 2007, FLAC (image+.cue), lossless

Статистика раздачи
Размер:  409.2 MB   |   Зарегистрирован:  3 года 11 месяцев   |   .torrent скачан:  1,970 раз
Сиды:  5   Личи:  1
Автор
Сообщение

40years

Top Seed 04* 320r

Стаж: 10 лет 1 месяц

Сообщений: 1599

flag

40years · 25-Дек-14 17:54 (3 года 11 месяцев назад, ред. 25-Дек-14 18:13)

 

Yoshio Kimura DENON Hi-Fi Acoustic Guitar Best Collection
Жанр: Audiophile, Guitar, Instrumental
Носитель: CD
Страна-производитель диска (релиза): Japan
Год издания: 2007
Издатель (лейбл): Columbia Music Entertainment
Номер по каталогу: MSCD 8001
Аудиокодек: FLAC (*.flac)
Тип рипа: image+.cue
Битрейт аудио: lossless
Продолжительность: 01:12:04
Источник (релизер): сеть
Наличие сканов в содержимом раздачи: да
Треклист:
01. Melanhcoly Channel [04:09]
02. Tears Of Love [03:24]
03. Mail Boat To The Small Island [03:59]
04. Life On The Dark Side [03:27]
05. Firefly [04:57]
06. Flux [03:19]
07. Oh The Sake [04:51]
08. The Diary [05:00]
09. Touch Me Not (Balsam) [03:58]
10. Sake For Two [04:01]
11. Commuting Ship [03:44]
12. Class Of Women [03:20]
13. Looking For Happiness [03:59]
14. Kanto's Song Of The Moon Night [02:46]
15. Heart Of Sake [03:08]
16. Road Of Journey [03:21]
17. Is Sake For Tears Or For Sighs [03:04]
18. Hibari's Stories Of Affairs In Sado [03:22]
19. Ice Rain [04:05]
Лог создания рипа
Exact Audio Copy V1.0 beta 3 from 29. August 2011
EAC extraction logfile from 16. January 2012, 17:14
Yoshio Kimura / Denon Best Collection - Hi Fi Acoustic Guitar
Used drive : ASUS DRW-24B1LT Adapter: 2 ID: 1
Read mode : Secure
Utilize accurate stream : Yes
Defeat audio cache : Yes
Make use of C2 pointers : No
Read offset correction : 6
Overread into Lead-In and Lead-Out : No
Fill up missing offset samples with silence : Yes
Delete leading and trailing silent blocks : No
Null samples used in CRC calculations : Yes
Used interface : Native Win32 interface for Win NT & 2000
Used output format : Internal WAV Routines
Sample format : 44.100 Hz; 16 Bit; Stereo
TOC of the extracted CD
Track | Start | Length | Start sector | End sector
---------------------------------------------------------
1 | 0:00.00 | 4:09.62 | 0 | 18736
2 | 4:09.62 | 3:24.15 | 18737 | 34051
3 | 7:34.02 | 3:59.68 | 34052 | 52044
4 | 11:33.70 | 3:27.62 | 52045 | 67631
5 | 15:01.57 | 4:57.43 | 67632 | 89949
6 | 19:59.25 | 3:19.45 | 89950 | 104919
7 | 23:18.70 | 4:51.27 | 104920 | 126771
8 | 28:10.22 | 5:00.20 | 126772 | 149291
9 | 33:10.42 | 3:58.40 | 149292 | 167181
10 | 37:09.07 | 4:01.50 | 167182 | 185306
11 | 41:10.57 | 3:44.58 | 185307 | 202164
12 | 44:55.40 | 3:20.22 | 202165 | 217186
13 | 48:15.62 | 3:59.73 | 217187 | 235184
14 | 52:15.60 | 2:46.42 | 235185 | 247676
15 | 55:02.27 | 3:08.63 | 247677 | 261839
16 | 58:11.15 | 3:21.00 | 261840 | 276914
17 | 61:32.15 | 3:04.17 | 276915 | 290731
18 | 64:36.32 | 3:22.10 | 290732 | 305891
19 | 67:58.42 | 4:05.48 | 305892 | 324314
Range status and errors
Selected range
Filename E:\My Music\International\@@@@AHa hay nghe\Yoshio Kimura - Denon Best Collection - Hi Fi Acoustic Guitar.wav
Peak level 100.0 %
Extraction speed 2.4 X
Range quality 100.0 %
Copy CRC 607F1729
Copy OK
No errors occurred
AccurateRip summary
Track 1 cannot be verified as accurate (confidence 7) [1A38C968], AccurateRip returned [263CE202] (AR v2)
Track 2 cannot be verified as accurate (confidence 7) [70027A77], AccurateRip returned [A665971B] (AR v2)
Track 3 cannot be verified as accurate (confidence 7) [59B5755E], AccurateRip returned [AD4886F4] (AR v2)
Track 4 cannot be verified as accurate (confidence 7) [9E89C396], AccurateRip returned [C058ED43] (AR v2)
Track 5 cannot be verified as accurate (confidence 7) [E1EB53A3], AccurateRip returned [97478A15] (AR v2)
Track 6 cannot be verified as accurate (confidence 6) [D1528AF5], AccurateRip returned [26EE2818] (AR v2)
Track 7 cannot be verified as accurate (confidence 7) [4B873B06], AccurateRip returned [FFFD6257] (AR v2)
Track 8 cannot be verified as accurate (confidence 7) [8519035C], AccurateRip returned [59736B4F] (AR v2)
Track 9 cannot be verified as accurate (confidence 7) [6CDA3935], AccurateRip returned [2CA83BA2] (AR v2)
Track 10 cannot be verified as accurate (confidence 7) [2F312617], AccurateRip returned [9C7DB609] (AR v2)
Track 11 cannot be verified as accurate (confidence 7) [56E92691], AccurateRip returned [FBC49A99] (AR v2)
Track 12 cannot be verified as accurate (confidence 7) [A82DD0C9], AccurateRip returned [02D91072] (AR v2)
Track 13 cannot be verified as accurate (confidence 7) [B5666A65], AccurateRip returned [984EA172] (AR v2)
Track 14 cannot be verified as accurate (confidence 7) [84A8480D], AccurateRip returned [AFF2DB6A] (AR v2)
Track 15 cannot be verified as accurate (confidence 7) [971FEABC], AccurateRip returned [14D5D828] (AR v2)
Track 16 cannot be verified as accurate (confidence 7) [50F2D2C9], AccurateRip returned [167DE13C] (AR v2)
Track 17 cannot be verified as accurate (confidence 7) [23A54ABE], AccurateRip returned [E32993F5] (AR v2)
Track 18 cannot be verified as accurate (confidence 7) [5A6FA7DC], AccurateRip returned [049C8D3A] (AR v2)
Track 19 cannot be verified as accurate (confidence 7) [F540081C], AccurateRip returned [584B3F8B] (AR v2)
No tracks could be verified as accurate
You may have a different pressing from the one(s) in the database
End of status report
---- CUETools DB Plugin V2.1.3
Содержание индексной карты (.CUE)
REM GENRE Acoustic
REM DATE 1998
REM DISCID 1A10E413
REM COMMENT "ExactAudioCopy v1.0b3"
PERFORMER "Yoshio Kimura"
TITLE "Denon Best Collection - Hi Fi Acoustic Guitar"
FILE "Yoshio Kimura - Denon Best Collection - Hi Fi Acoustic Guitar.wav" WAVE
TRACK 01 AUDIO
TITLE "Melanhcoly Channel"
PERFORMER "Yoshio Kimura"
INDEX 01 00:00:00
TRACK 02 AUDIO
TITLE "Tears Of Love"
PERFORMER "Yoshio Kimura"
INDEX 00 04:07:00
INDEX 01 04:09:62
TRACK 03 AUDIO
TITLE "Mail Boat To The Small Island"
PERFORMER "Yoshio Kimura"
INDEX 00 07:30:35
INDEX 01 07:34:02
TRACK 04 AUDIO
TITLE "Life On The Dark Side"
PERFORMER "Yoshio Kimura"
INDEX 00 11:30:70
INDEX 01 11:33:70
TRACK 05 AUDIO
TITLE "Firefly"
PERFORMER "Yoshio Kimura"
INDEX 00 14:58:37
INDEX 01 15:01:57
TRACK 06 AUDIO
TITLE "Flux"
PERFORMER "Yoshio Kimura"
INDEX 00 19:56:35
INDEX 01 19:59:25
TRACK 07 AUDIO
TITLE "Oh The Sake"
PERFORMER "Yoshio Kimura"
INDEX 00 23:15:42
INDEX 01 23:18:70
TRACK 08 AUDIO
TITLE "The Diary"
PERFORMER "Yoshio Kimura"
INDEX 00 28:07:17
INDEX 01 28:10:22
TRACK 09 AUDIO
TITLE "Touch Me Not (Balsam)"
PERFORMER "Yoshio Kimura"
INDEX 00 33:07:35
INDEX 01 33:10:42
TRACK 10 AUDIO
TITLE "Sake For Two"
PERFORMER "Yoshio Kimura"
INDEX 00 37:05:72
INDEX 01 37:09:07
TRACK 11 AUDIO
TITLE "Commuting Ship"
PERFORMER "Yoshio Kimura"
INDEX 00 41:07:37
INDEX 01 41:10:57
TRACK 12 AUDIO
TITLE "Class Of Women"
PERFORMER "Yoshio Kimura"
INDEX 00 44:51:37
INDEX 01 44:55:40
TRACK 13 AUDIO
TITLE "Looking For Happiness"
PERFORMER "Yoshio Kimura"
INDEX 00 48:11:62
INDEX 01 48:15:62
TRACK 14 AUDIO
TITLE "Kanto's Song Of The Moon Night"
PERFORMER "Yoshio Kimura"
INDEX 00 52:12:32
INDEX 01 52:15:60
TRACK 15 AUDIO
TITLE "Heart Of Sake"
PERFORMER "Yoshio Kimura"
INDEX 00 54:58:42
INDEX 01 55:02:27
TRACK 16 AUDIO
TITLE "Road Of Journey"
PERFORMER "Yoshio Kimura"
INDEX 00 58:07:37
INDEX 01 58:11:15
TRACK 17 AUDIO
TITLE "Is Sake For Tears Or For Sighs"
PERFORMER "Yoshio Kimura"
INDEX 00 61:28:72
INDEX 01 61:32:15
TRACK 18 AUDIO
TITLE "Hibari's Stories Of Affairs In Sado"
PERFORMER "Yoshio Kimura"
INDEX 00 64:33:02
INDEX 01 64:36:32
TRACK 19 AUDIO
TITLE "Ice Rain"
PERFORMER "Yoshio Kimura"
INDEX 00 67:54:45
INDEX 01 67:58:42
Лог проверки качества
-----------------------
DON'T MODIFY THIS FILE
-----------------------
PERFORMER: auCDtect Task Manager, ver. 1.5.1RC6 build 1.5.1.7
Copyright (c) 2008-2010 y-soft. All rights reserved
http://y-soft.org
ANALYZER: auCDtect: CD records authenticity detector, version 0.8.2
Copyright (c) 2004 Oleg Berngardt. All rights reserved.
Copyright (c) 2004 Alexander Djourik. All rights reserved.
FILE: Yoshio Kimura - Denon Best Collection - Hi Fi Acoustic Guitar.flac
Size: 412984054 Hash: 39E31E55FF625AE089935B0267E70784 Accuracy: -m0
Conclusion: CDDA 99%
Signature: EB8F5C856C7220ADAD2B833F3CEB055664A22A0C
Зарегистрирован:
  • 25-Дек-14 17:54
  • Скачан: 1,970 раз

Скачать .torrent

17 KB

Тип: обычная
Статус: проверено
Размер: 409.2 MB  ·  magnet46CC1DDBE532BDB6ECF5195BFA927E22180ABCB0
  • Свернуть поддиректории
  • Развернуть
  • Переключить
  • Увел./умен. окно
загружается...

MuzoDor

Стаж: 9 лет 1 месяц

Сообщений: 221

flag

MuzoDor · 02-Янв-16 16:00 (спустя 1 год)

40years! Большое спасибо за чудесника японской гитары, в улетном качестве.

Leo246

Стаж: 4 года 4 месяца

Сообщений: 201

flag

Leo246 · 26-Май-17 18:29 (спустя 1 год 4 месяца)

http://GOSTRACKER.XYZ/viewtopic.php?t=5408012 Yoshio Kimura
Радиола "Заря"
 
All rights reserved © 2017-2018
Loading...
Error