Евгений Гришковец: Шёпот сердца (Павел Судаков) [2017, моноспектакль, WEB-DLRip]

Статистика раздачи
Размер:  1.46 GB   |   Зарегистрирован:  1 год 8 месяцев   |   .torrent скачан:  7,496 раз
Сиды:  68   Личи:  4
Автор
Сообщение

waarheid

Top Seed 01* 40r

Стаж: 7 лет 7 месяцев

Сообщений: 162

waarheid · 09-Мар-17 18:23 (1 год 8 месяцев назад)

 

Евгений Гришковец: Шёпот сердца Жанр: моноспектакль
Год выпуска: 2017
Продолжительность: 02:07:58
Режиссёр: Павел Судаков
В ролях: Евгений Гришковец
Описание: Евгений Гришковец, который «переменил представления о жанре моноспектакля и даже сам стал определенным «жанром»», называет «Шёпот сердца» своей самой необычной и самой сокровенной работой.
«Это мой шестой монолог за семнадцать лет работы, над замыслом которого я думал больше пяти лет, а он мне никак не давался. Три с лишним года назад я даже подумывал отказаться от него и сделал «Прощание с бумагой». Однако, снова и снова я возвращался к «Шёпоту сердца»… Это было время крайне тщательного и неспешного подбора слов и смыслов».
Доп. информация:

Рип: waarheid
Сэмпл:

Качество видео: WEB-DLRip [Исходник: WEB-DL 1080р]
Формат видео: AVI
Видео: 720x400 (1.80:1), 25 fps, XviD build 73 ~1499 kbps avg, 0.21 bit/pixel
Аудио: 48 kHz, MPEG Layer 3, 2 ch, ~128.00 kbps avg
MediaInfo
Общее
Полное имя : Гришковец.Шепот сердца.2017_WEB-DLRip_by_waarheid.avi
Формат : AVI
Формат/Информация : Audio Video Interleave
Размер файла : 1,46 Гбайт
Продолжительность : 2 ч. 7 м.
Общий поток : 1637 Кбит/сек
Программа кодирования : VirtualDubMod 1.5.10.3 | www.virtualdub-fr.org || (build 2550/release)
Видео
Идентификатор : 0
Формат : MPEG-4 Visual
Профиль формата : Advanced Simple@L5
Параметр BVOP формата : 1
Параметр QPel формата : Нет
Параметр GMC формата : Без точки перехода
Параметр матрицы формата : Выборочная
Идентификатор кодека : XVID
Идентификатор кодека/Подсказка : XviD
Продолжительность : 2 ч. 7 м.
Битрейт : 1500 Кбит/сек
Ширина : 720 пикселей
Высота : 400 пикселей
Соотношение сторон : 16:9
Частота кадров : 25,000 кадров/сек
Цветовое пространство : YUV
Субдискретизация насыщенности : 4:2:0
Битовая глубина : 8 бит
Тип развёртки : Прогрессивная
Метод сжатия : С потерями
Бит/(Пиксели*Кадры) : 0.208
Размер потока : 1,34 Гбайт (92%)
Библиотека кодирования : XviD 73
Аудио
Идентификатор : 1
Формат : MPEG Audio
Версия формата : Version 1
Профиль формата : Layer 3
Идентификатор кодека : 55
Идентификатор кодека/Подсказка : MP3
Продолжительность : 2 ч. 7 м.
Вид битрейта : Постоянный
Битрейт : 128 Кбит/сек
Каналы : 2 канала
Частота : 48,0 КГц
Метод сжатия : С потерями
Размер потока : 117 Мбайт (8%)
Выравнивание : Соединение по промежуткам
Продолжительность промежутка : 40 мс. (1,00 видеокадр)
Время предзагрузки промежутка : 504 мс.
Библиотека кодирования : LAME3.99r
Настройки программы : -m s -V 4 -q 2 -lowpass 17 -b 128
Скриншот с названием постановки
Скриншоты
Зарегистрирован:
  • 09-Мар-17 18:23
  • Скачан: 7,496 раз

Скачать .torrent

15 KB

Тип: обычная
Статус: проверено
Размер: 1.46 GB  ·  magnetDF477CAE189B2B707693AA223872F9B73F2D89F5
  • Свернуть поддиректории
  • Развернуть
  • Переключить
  • Увел./умен. окно
загружается...

waarheid

Top Seed 01* 40r

Стаж: 7 лет 7 месяцев

Сообщений: 162

waarheid · 09-Мар-17 18:28 (спустя 5 мин., ред. 09-Мар-17 18:28)

Евгений Гришковец: Прощание с бумагой (Павел Судаков) [2014, моноспектакль, DVDRip]

verover

Стаж: 8 лет 7 месяцев

Сообщений: 106

flag

verover · 20-Апр-17 15:49 (спустя 1 месяц 10 дней)

Спасибо. Звук не понравился. Чувствуется то ли заниженность битрейта, то ли так записан изначально. Скачиваю версию на 5Гб, проверить есть ли разница... По самомому спектаклю пока ничего, только начинаю. И, кстати, на всякий случай, супротив упрёков о бесплатном скачивании лично от себя скажу, что поддерживал финансово проект на Планете, ничего в ответ не просил, хотя стоило поставить галочку рядом с вариантом "ссылку запись спектакля". Так что торрент. Но и сам никого не осуждаю, кто скачивает. Наоборот. Очень рад каждому заинтересовавшемуся. Деньги - вторично. Первичны жажда познания, интерес, вдохновение. Спасибо раздающим!

waarheid

Top Seed 01* 40r

Стаж: 7 лет 7 месяцев

Сообщений: 162

waarheid · 21-Апр-17 14:40 (спустя 22 часа)

verover писал(а):
72949620Спасибо. Звук не понравился. Чувствуется то ли заниженность битрейта, то ли так записан изначально. Скачиваю версию на 5Гб, проверить есть ли разница...
Пожалуйста. Мне тоже звук не понравился. Действительно, вы правы - так записан изначально. Поверьте, если только из-за звука скачиваете версию на 5Гб, то напрасно, разницы по звуку нет.

djmonster

Top User 01

Стаж: 12 лет 1 месяц

Сообщений: 177

flag

djmonster · 08-Июн-17 01:14 (спустя 1 месяц 16 дней)

Спектакль очень впечатлил! Звук вроде неплохой.

waarheid

Top Seed 01* 40r

Стаж: 7 лет 7 месяцев

Сообщений: 162

waarheid · 09-Июн-17 23:59 (спустя 1 день 22 часа)

djmonster писал(а):
73259553Спектакль очень впечатлил! Звук вроде неплохой.
В общем-то, да, звук здесь особой роли, в принципе, не играет - только аплодисменты когда раздаются, тогда так называемый эффект бочки проявляется, а сам звук монолога/речи - норм.

metalim

Стаж: 11 лет 11 месяцев

Сообщений: 62

flag

metalim · 27-Сен-17 18:04 (спустя 3 месяца 17 дней)

Про звук через некоторое время забываешь, т.к. искажения слышны только на звуке из зала (видимо криво свели мультиканальный звук).
Спектакль замечательный. Первый просмотренный мной спектакль от Гришковца, думаю не последний.
Спасибо за раздачу.
Берегите медведей.

tanuxin

Стаж: 10 лет 4 месяца

Сообщений: 29

flag

tanuxin · 19-Окт-17 18:56 (спустя 22 дня)

Спасибо!!!
Спектакль просто фантастический (смотрела живьём), масса впечатлений, до сих пор многие моменты вспоминаются с улыбкой.
Интересная у него манера - доверительный разговор: вроде бы монолог, а мысленно отвечаешь соглашаешься, споришь, задумываешься....))) И почти в каждом эпизоде узнаёшь или себя, или кого-то из знакомых))))

formosa

Стаж: 10 лет 11 месяцев

Сообщений: 770

formosa · 24-Окт-17 06:39 (спустя 4 дня)

Всем смотреть только вживую, намного больше удовольствия.

IzhStyle

Стаж: 6 лет 5 месяцев

Сообщений: 5

flag

IzhStyle · 24-Окт-18 22:58 (спустя 1 год, ред. 24-Окт-18 22:58)

formosa
Блин, только посмотреть собрался, а ты запретила. Вот же облом....
Спектакль отличный. Звук терпимый, не надо ныть. А молодежь как на стендап-комика пришли, ржут постоянно, по теме и без. Задолбали, идиоты.
 
All rights reserved © 2017-2018
Loading...
Error