Карточный Домик / House of Cards / Сезон: 3 / Серии: 1-13 из 13 (Джеймс Фоули, Джон Дэвид Коулз, Карл Франклин) [2015, США, Драма, BDRip 1080p] MVO (Первый канал) + Original

Статистика раздачи
Размер:  58.92 GB   |   Зарегистрирован:  2 года 8 месяцев   |   .torrent скачан:  23,756 раз
Сиды:  43   Личи:  15
Автор
Сообщение

yanusbeda

Стаж: 11 лет 1 месяц

Сообщений: 171

flag

yanusbeda · 06-Мар-16 08:00 (2 года 8 месяцев назад, ред. 06-Мар-16 18:24)

 

Карточный Домик / House of Cards
Год выпуска: 2015
Страна: США
Жанр: Драма
Продолжительность: ~55 мин
Перевод: Профессиональный (многоголосый закадровый) Первый канал
Режиссёр: Джеймс Фоули, Джон Дэвид Коулз, Карл Франклин
В ролях: Кевин Спейси, Робин Райт, Кейт Мара, Кори Столл, Майкл Келли, Сакина Джэффри, Ларри Пайн, Джейн Эткинсон, Кевин Килнер, Жаклин Джонс, Рюэл Пендлтон, Гилберт Сото, Кристен Коннолли, Сандрин Холт, Махершалалхашбаз Али, Майкл Гилл, Рэйчел Броснахэн, Бен Дэниелс, Тони Сайпресс, Констанс Зиммер
Описание: Безжалостный конгрессмен, Фрэнсис Андервуд, и его амбициозная жена Клэр, не остановятся ни перед чем, чтобы завоевать все. Эта жестокая политическая драма пропитанная жадностью, сексом, любовью и коррупцией.
Ссылка на предыдущие и альтернативные раздачи
Первый сезон BDRip
Второй сезон BDRip

Качество: BDRip 1080p
Контейнер: MKV
Сэмпл
Видео: MPEG4 Video (H264) 1920x960 9909 Kbps 23.976fps
Аудио_RUS: Dolby AC3 48000Hz stereo 192kbps
Аудио_ENG: Dolby AC3 48000Hz 6 channels 640 Kbps
Субтитры: Русские (Амедиа), английские
MediaInfo
General
Unique ID : 197617336040463528333823143036333618338 (0x94ABB6E98A38224D88F7352F4E1474A2)
Complete name : Сезон 3\House.of.Cards.S03E01.1080p.BluRay.DD5.1.x264.mkv
Format : Matroska
Format version : Version 4 / Version 2
File size : 4.48 GiB
Duration : 58mn 27s
Overall bit rate : 11.0 Mbps
Encoded date : UTC 2016-03-05 07:53:45
Writing application : mkvmerge v8.9.0 ('Father Daughter') 64bit
Writing library : libebml v1.3.3 + libmatroska v1.4.4
DURATION : 00:53:57.441000000
NUMBER_OF_FRAMES : 833
NUMBER_OF_BYTES : 48147
_STATISTICS_WRITING_APP : mkvmerge v8.9.0 ('Father Daughter') 64bit
_STATISTICS_WRITING_DATE_UTC : 2016-03-05 07:53:45
_STATISTICS_TAGS : BPS DURATION NUMBER_OF_FRAMES NUMBER_OF_BYTES
Video
ID : 1
Format : AVC
Format/Info : Advanced Video Codec
Format profile : High@L4.1
Format settings, CABAC : Yes
Format settings, ReFrames : 4 frames
Codec ID : V_MPEG4/ISO/AVC
Duration : 58mn 27s
Bit rate : 9 909 Kbps
Width : 1 920 pixels
Height : 960 pixels
Display aspect ratio : 2.000
Frame rate mode : Constant
Frame rate : 23.976 fps
Color space : YUV
Chroma subsampling : 4:2:0
Bit depth : 8 bits
Scan type : Progressive
Bits/(Pixel*Frame) : 0.224
Stream size : 4.05 GiB (90%)
Writing library : x264 core 140 r2377+40 929f149 tMod [8-bit@4:2:0 X86]
Encoding settings : cabac=1 / ref=4 / deblock=1:-3:-3 / analyse=0x3:0x113 / me=tesa / subme=10 / psy=1 / fade_compensate=0.00 / psy_rd=1.10:0.00 / mixed_ref=1 / me_range=24 / chroma_me=1 / trellis=2 / 8x8dct=1 / cqm=0 / deadzone=21,11 / fast_pskip=0 / chroma_qp_offset=-2 / threads=12 / lookahead_threads=2 / sliced_threads=0 / nr=0 / decimate=0 / interlaced=0 / bluray_compat=0 / constrained_intra=0 / fgo=0 / bframes=9 / b_pyramid=2 / b_adapt=2 / b_bias=0 / direct=3 / weightb=1 / open_gop=0 / weightp=2 / keyint=250 / keyint_min=23 / scenecut=40 / intra_refresh=0 / rc=crf / mbtree=0 / crf=16.0000 / qcomp=0.70 / qpmin=0:0:0 / qpmax=69:69:69 / qpstep=4 / ip_ratio=1.30 / pb_ratio=1.10 / aq=4:0.85 / aq-sensitivity=10.00 / aq-factor=1.00:1.00:1.00 / aq2=0 / aq3=0
Language : English
Default : Yes
Forced : No
DURATION : 00:58:27.504000000
NUMBER_OF_FRAMES : 84096
NUMBER_OF_BYTES : 4439124288
_STATISTICS_WRITING_APP : mkvmerge v8.9.0 ('Father Daughter') 64bit
_STATISTICS_WRITING_DATE_UTC : 2016-03-05 07:53:45
_STATISTICS_TAGS : BPS DURATION NUMBER_OF_FRAMES NUMBER_OF_BYTES
Audio #1
ID : 2
Format : AC-3
Format/Info : Audio Coding 3
Mode extension : CM (complete main)
Format settings, Endianness : Big
Codec ID : A_AC3
Duration : 58mn 27s
Bit rate mode : Constant
Bit rate : 192 Kbps
Channel(s) : 2 channels
Channel positions : Front: L R
Sampling rate : 48.0 KHz
Bit depth : 16 bits
Compression mode : Lossy
Stream size : 80.3 MiB (2%)
Language : Russian
Default : Yes
Forced : No
Audio #2
ID : 3
Format : AC-3
Format/Info : Audio Coding 3
Mode extension : CM (complete main)
Format settings, Endianness : Big
Codec ID : A_AC3
Duration : 58mn 27s
Bit rate mode : Constant
Bit rate : 640 Kbps
Channel(s) : 6 channels
Channel positions : Front: L C R, Side: L R, LFE
Sampling rate : 48.0 KHz
Bit depth : 16 bits
Compression mode : Lossy
Stream size : 268 MiB (6%)
Title : English
Language : English
Default : No
Forced : No
Text #1
ID : 4
Format : UTF-8
Codec ID : S_TEXT/UTF8
Codec ID/Info : UTF-8 Plain Text
Language : Russian
Default : Yes
Forced : No
Text #2
ID : 5
Format : UTF-8
Codec ID : S_TEXT/UTF8
Codec ID/Info : UTF-8 Plain Text
Title : English
Language : English
Default : No
Forced : No
Menu
00:00:00.000 : en:00:00:00.000
00:04:48.788 : en:00:04:48.788
00:09:00.915 : en:00:09:00.915
00:18:58.012 : en:00:18:58.012
00:28:37.925 : en:00:28:37.925
00:37:26.035 : en:00:37:26.035
00:47:43.903 : en:00:47:43.903
00:56:09.575 : en:00:56:09.575
Скриншоты
Зарегистрирован:
  • 06-Мар-16 08:00
  • Скачан: 23,756 раз

Скачать .torrent

75 KB

Тип: обычная
Статус: * не проверено
Размер: 58.92 GB  ·  magnet57BA468774296CAE59D8BC7C00DF10E1040D6502
  • Свернуть поддиректории
  • Развернуть
  • Переключить
  • Увел./умен. окно
загружается...

sf-dream

Стаж: 5 лет 2 месяца

Сообщений: 1

flag

sf-dream · 07-Мар-16 17:50 (спустя 1 день 9 часов)

4 сезон будет?

yanusbeda

Стаж: 11 лет 1 месяц

Сообщений: 171

flag

yanusbeda · 07-Мар-16 21:28 (спустя 3 часа)

sf-dream писал(а):
701974544 сезон будет?
Будет BDRip выложу. Пока нету

RETAND

Стаж: 8 лет 3 месяца

Сообщений: 3

flag

RETAND · 11-Мар-16 23:29 (спустя 4 дня)

Нельзя ли папки нормально назвать? а то "Сезон 1" "Сезон 2"...

PapaLucas

Стаж: 10 лет 7 месяцев

Сообщений: 37

PapaLucas · 08-Апр-16 00:22 (спустя 27 дней)

720 будет? Буду благодарен.

cavelev

Стаж: 8 лет 10 месяцев

Сообщений: 2

flag

cavelev · 24-Май-16 22:22 (спустя 1 месяц 16 дней)

всем привет! подскажите пожалуйста если кто знает, я смотрел этот сериал на okko.tv. там очень хорошее качество всё четко здесь такое же качество?

zeliboba15

Стаж: 8 лет 10 месяцев

Сообщений: 16

flag

zeliboba15 · 24-Май-16 22:27 (спустя 4 мин.)

cavelev писал(а):
70756097всем привет! подскажите пожалуйста если кто знает, я смотрел этот сериал на okko.tv. там очень хорошее качество всё четко здесь такое же качество?
Здесь отличное качество, можешь смело скачивать.

ooOO0O.O0OOoo

Стаж: 4 года 1 месяц

Сообщений: 2

flag

ooOO0O.O0OOoo · 21-Авг-16 01:18 (спустя 2 месяца 27 дней, ред. 21-Авг-16 01:18)

Перевод первого канала просто отвратителен. Особенно в сценах, где присутствуют русские. Умышленно опускаются отдельные фразы. Смотрю третью серию (с английскими сабами), но уже реально бесит. Способности нормально смотреть в оригинале пока нет, но с таким переводом уже и не понятно, где больше смысла потеряешь: в недопонятой оригинальной дорожке или российском дубляже.

z484z

Стаж: 7 лет 11 месяцев

Сообщений: 81


z484z · 29-Авг-16 15:50 (спустя 8 дней)

Жалко, что размер огромный, не сомгу долго оставаться на раздаче, буду по очереди скачивать и удалять. Прошлый сезон - 32 ГБ, еще терпимо. Все равно спасибо большое, альтернативы нет.

CEBEPu2D

Top Loader 04* 1TB

Стаж: 9 лет 1 месяц

Сообщений: 656

flag

CEBEPu2D · 19-Сен-16 18:09 (спустя 21 день, ред. 20-Сен-16 19:48)

Карточный Домик / House of Cards 2 сезон BDRip 1080p
Карточный Домик / House of Cards 4 сезон BDRip 1080p
Мои раздачи 1080p

Китайский летчик - Схера Ли
Человек культурен настолько, насколько он способен понять кошку.
Сражаюсь с добром за все человечество

ST210

Стаж: 8 лет 6 месяцев

Сообщений: 75

flag

ST210 · 12-Ноя-16 12:37 (спустя 1 месяц 22 дня)

RETAND писал(а):
70230246Нельзя ли папки нормально назвать? а то "Сезон 1" "Сезон 2"...
Переименуй, как хочешь, — и будет тебе Щастье )))

FunF

Стаж: 9 лет 10 месяцев

Сообщений: 2

flag

FunF · 31-Мар-17 23:02 (спустя 4 месяца 19 дней)

Четвертая серия - битая

Dentaleli

Стаж: 9 лет 4 месяца

Сообщений: 454


Dentaleli · 08-Июн-17 10:50 (спустя 2 месяца 7 дней, ред. 08-Июн-17 10:50)

Как только американцы касаются российской темы, идёт убогое враньё и пошляк. Изобразили российского президента х.з. кем. Золотая бутылка водки, пуськи (Pussy Riot), русские песни, хамство. Тошно и убого. Наверняка без гнилой руки госдепа не обошлось. Как Кевин Спейси к этому отнёсся? Или он достаточно умный, чтобы не идти против системы?

pravdo

Стаж: 10 лет

Сообщений: 27

flag

pravdo · 03-Июл-17 19:10 (спустя 25 дней)

Ошибка в субтитрах.
6 серия.
00:25:48
"I'm positive" перевели "Я здоров", но на самом деле это значит. что "Тест положительный".

mr.ptr

Стаж: 6 лет

Сообщений: 14

flag

mr.ptr · 11-Окт-17 12:41 (спустя 3 месяца 7 дней)

:)) А американцы здесь прямо ангелы все

Infernal_Satan

Стаж: 9 лет 11 месяцев

Сообщений: 66

Infernal_Satan · 09-Ноя-17 23:34 (спустя 29 дней, ред. 09-Ноя-17 23:34)

RASH SVOBODA писал(а):
73915381Закончил просмотр данного сериала на 3 серии 3 сезона.
Русские притесняют геев, президент развратник, КГБ. Даже шлюх из пуси риот сняли. Дно. Еще бы медведя добавили и балалайку.
Аналогично, я так ржал с этой серии, такая смешная чушь) говносериал

begemoth81

Стаж: 7 лет 3 месяца

Сообщений: 56

flag

begemoth81 · 14-Ноя-17 19:48 (спустя 4 дня)

Все кто после 3-ей серии бросили просмотр - зря. Вы лишились уникальной возможности лицезреть превращение русского гей цирка в слезливую гей драму в 6-ой серии, с логичным возведением спонтанного бреда в закономерный маразм.
Одно лицо тюремного охранника стоит потраченного времени:)

Gbkfq

Стаж: 8 лет 6 месяцев

Сообщений: 65

flag

Gbkfq · 30-Ноя-17 19:55 (спустя 16 дней)

Боже правый.
Миссис Андервуд
просто
и
з
у
м
л
я
е
т
.
Хочется непрерывно смотреть на неё,она ошеломляет.
 
All rights reserved © 2017-2018
Loading...
Error