Живое / Life (Даниэль Эспиноса / Daniel Espinosa) [2017, США, ужасы, фантастика, триллер, UHD BDRemux 2160p] Dub + AVO + 2x VO + Original (Eng) + Sub (Rus, Eng)

Статистика раздачи
Размер:  47.73 GB   |   Зарегистрирован:  1 год   |   .torrent скачан:  1,261 раз
Сиды:  9   Личи:  1
Автор
Сообщение

arxivariys

Top Best

Стаж: 9 лет 2 месяца

Сообщений: 1296

flag

arxivariys · 22-Окт-17 14:14 (1 год назад, ред. 22-Окт-17 17:04)

 

Живое / Life


Страна: США
Студия: Columbia Pictures, Skydance Productions, Sony Pictures Entertainment (SPE)
Жанр: ужасы, фантастика, триллер
Год выпуска: 2017
Продолжительность: 01:43:58

Перевод 1: Профессиональный (дублированный) Blu-Ray
Перевод 2: Авторский (одноголосый закадровый) В. Дохалов
Перевод 3: Одноголосый закадровый Д. Есарев
Перевод 4: Одноголосый закадровый М. Чадов
Субтитры: русские (forced, full), английские (forced, full, SDH)
Оригинальная аудиодорожка: английский

Режиссер: Даниэль Эспиноса / Daniel Espinosa
В ролях: Джейк Джилленхол, Ребекка Фергюсон, Райан Рейнольдс, Ольга Дыховичная, Эрион Бакаре, Хироюки Санада, Наоко Мори, Александр Нгуйен, Камиль Уоррен-Тейлор, Хиу Ун-Син

Описание: Группа исследователей с международного космического корабля обнаруживает жизнь на Марсе. Они еще не подозревают, какие события повлечет за собой их открытие.

imdb | kinopoisk | Сэмпл

Тип релиза: UHD BDRemux 2160p [Life 2017 2160p UHD Blu-ray HEVC TrueHD 7.1-BeyondHD]
Контейнер: MKV
Видео: MPEG-H HEVC Video / 52696 kbps / 3840x2160 / 23.976 fps / 16:9 / Main 10 Profile 5.1 High / 4:2:0 / 10 bits / HDR / BT.2020 /
Аудио 1: Russian AC3 / 5.1 / 48 kHz / 640 kbps / 16 bits |Dub, Blu-Ray|
Аудио 2: Russian DTS-HD Master Audio / 7.1 / 48 kHz / 2694 kbps / 16-bit (DTS Core: 5.1 / 48 kHz / 1509 kbps / 16-bit) |В. Дохалов|
Аудио 3: Russian DTS-HD Master Audio / 7.1 / 48 kHz / 2701 kbps / 16-bit (DTS Core: 5.1 / 48 kHz / 1509 kbps / 16-bit) |Д. Есарев|
Аудио 4: Russian DTS-HD Master Audio / 7.1 / 48 kHz / 2704 kbps / 16-bit (DTS Core: 5.1 / 48 kHz / 1509 kbps / 16-bit) |М. Чадов|
Аудио 5: English DTS-HD Master Audio / 7.1 / 48 kHz / 4284 kbps / 24-bit (DTS Core: 5.1 / 48 kHz / 1509 kbps / 24-bit) |original|
Формат субтитров: softsub [SRT]
MediaInfo
Код:
Общее
Уникальный идентификатор                 : 223289302301145985619419950380669984120 (0xA7FBF4923B301BBD908C33273C8BDD78)
Полное имя                               : G:\HD\Живое.2017.UHD.BluRay.Remux.2160p.mkv
Формат                                   : Matroska
Версия формата                           : Version 4 / Version 2
Размер файла                             : 47,7 Гбайт
Продолжительность                        : 1 ч. 43 м.
Общий поток                              : 65,7 Мбит/сек
Дата кодирования                         : UTC 2017-10-22 11:25:01
Программа кодирования                    : mkvmerge v17.0.0 ('Be Ur Friend') 64-bit
Библиотека кодирования                   : libebml v1.3.5 + libmatroska v1.4.8
Attachments                              : poster.jpg
Видео
Идентификатор                            : 1
Формат                                   : HEVC
Формат/Информация                        : High Efficiency Video Coding
Профиль формата                          : Main 10@L5.1@High
Идентификатор кодека                     : V_MPEGH/ISO/HEVC
Продолжительность                        : 1 ч. 43 м.
Битрейт                                  : 52,7 Мбит/сек
Ширина                                   : 3840 пикселей
Высота                                   : 2160 пикселей
Соотношение сторон                       : 16:9
Режим частоты кадров                     : Постоянный
Частота кадров                           : 23,976 (24000/1001) кадра/сек
Цветовое пространство                    : YUV
Субдискретизация насыщенности            : 4:2:0 (Type 2)
Битовая глубина                          : 10 бит
Бит/(Пиксели*Кадры)                      : 0.265
Размер потока                            : 38,3 Гбайт (80%)
Default                                  : Да
Forced                                   : Нет
Цветовой диапазон                        : Limited
Основные цвета                           : BT.2020
Характеристики трансфера                 : PQ
Коэффициенты матрицы                     : BT.2020 non-constant
MasteringDisplay_ColorPrimaries          : R: x=0.680000 y=0.320000, G: x=0.265000 y=0.690000, B: x=0.150000 y=0.060000, White point: x=0.312700 y=0.329000
MasteringDisplay_Luminance               : min: 0.0050 cd/m2, max: 4000.0000 cd/m2
MaxCLL                                   : 6414 cd/m2
MaxFALL                                  : 952 cd/m2
Аудио #1
Идентификатор                            : 2
Формат                                   : AC-3
Формат/Информация                        : Audio Coding 3
Параметр Endianness формата              : Big
Идентификатор кодека                     : A_AC3
Продолжительность                        : 1 ч. 43 м.
Вид битрейта                             : Постоянный
Битрейт                                  : 640 Кбит/сек
Каналы                                   : 6 каналов
Расположение каналов                     : Front: L C R, Side: L R, LFE
Частота                                  : 48,0 КГц
Частота кадров                           : 31,250 кадров/сек (1536 SPF)
Битовая глубина                          : 16 бит
Метод сжатия                             : С потерями
Размер потока                            : 476 Мбайт (1%)
Заголовок                                : Dub, Blu-Ray
Язык                                     : Russian
ServiceKind/String                       : Complete Main
Default                                  : Да
Forced                                   : Нет
Аудио #2
Идентификатор                            : 3
Формат                                   : DTS
Формат/Информация                        : Digital Theater Systems
Профиль формата                          : MA / Core
Режим                                    : 16
Параметр Endianness формата              : Big
Идентификатор кодека                     : A_DTS
Продолжительность                        : 1 ч. 43 м.
Вид битрейта                             : Переменный / Постоянный
Битрейт                                  : 2694 Кбит/сек / 1509 Кбит/сек
Каналы                                   : 8 каналов / 6 каналов
Расположение каналов                     : Front: L C R, Side: L R, Back: L R, LFE / Front: L C R, Side: L R, LFE
Частота                                  : 48,0 КГц
Частота кадров                           : 93,750 кадра/сек (512 SPF)
Битовая глубина                          : 16 бит
Метод сжатия                             : Без потерь / Lossy
Размер потока                            : 1,96 Гбайт (4%)
Заголовок                                : В. Дохалов
Язык                                     : Russian
Default                                  : Нет
Forced                                   : Нет
Аудио #3
Идентификатор                            : 4
Формат                                   : DTS
Формат/Информация                        : Digital Theater Systems
Профиль формата                          : MA / Core
Режим                                    : 16
Параметр Endianness формата              : Big
Идентификатор кодека                     : A_DTS
Продолжительность                        : 1 ч. 43 м.
Вид битрейта                             : Переменный / Постоянный
Битрейт                                  : 2701 Кбит/сек / 1509 Кбит/сек
Каналы                                   : 8 каналов / 6 каналов
Расположение каналов                     : Front: L C R, Side: L R, Back: L R, LFE / Front: L C R, Side: L R, LFE
Частота                                  : 48,0 КГц
Частота кадров                           : 93,750 кадра/сек (512 SPF)
Битовая глубина                          : 16 бит
Метод сжатия                             : Без потерь / Lossy
Размер потока                            : 1,96 Гбайт (4%)
Заголовок                                : Д. Есарев
Язык                                     : Russian
Default                                  : Нет
Forced                                   : Нет
Аудио #4
Идентификатор                            : 5
Формат                                   : DTS
Формат/Информация                        : Digital Theater Systems
Профиль формата                          : MA / Core
Режим                                    : 16
Параметр Endianness формата              : Big
Идентификатор кодека                     : A_DTS
Продолжительность                        : 1 ч. 43 м.
Вид битрейта                             : Переменный / Постоянный
Битрейт                                  : 2704 Кбит/сек / 1509 Кбит/сек
Каналы                                   : 8 каналов / 6 каналов
Расположение каналов                     : Front: L C R, Side: L R, Back: L R, LFE / Front: L C R, Side: L R, LFE
Частота                                  : 48,0 КГц
Частота кадров                           : 93,750 кадра/сек (512 SPF)
Битовая глубина                          : 16 бит
Метод сжатия                             : Без потерь / Lossy
Размер потока                            : 1,96 Гбайт (4%)
Заголовок                                : М. Чадов
Язык                                     : Russian
Default                                  : Нет
Forced                                   : Нет
Аудио #5
Идентификатор                            : 6
Формат                                   : DTS
Формат/Информация                        : Digital Theater Systems
Профиль формата                          : MA / Core
Режим                                    : 16
Параметр Endianness формата              : Big
Идентификатор кодека                     : A_DTS
Продолжительность                        : 1 ч. 43 м.
Вид битрейта                             : Переменный / Постоянный
Битрейт                                  : 4284 Кбит/сек / 1509 Кбит/сек
Каналы                                   : 8 каналов / 6 каналов
Расположение каналов                     : Front: L C R, Side: L R, Back: L R, LFE / Front: L C R, Side: L R, LFE
Частота                                  : 48,0 КГц
Частота кадров                           : 93,750 кадра/сек (512 SPF)
Битовая глубина                          : 24 бит
Метод сжатия                             : Без потерь / Lossy
Размер потока                            : 3,11 Гбайт (7%)
Язык                                     : English
Default                                  : Нет
Forced                                   : Нет
Текст #1
Идентификатор                            : 7
Формат                                   : UTF-8
Идентификатор кодека                     : S_TEXT/UTF8
Идентификатор кодека/Информация          : UTF-8 Plain Text
Продолжительность                        : 1 ч. 9 м.
Битрейт                                  : 2 бит/сек
ElementCount                             : 26
Размер потока                            : 1,18 Кбайт (0%)
Заголовок                                : forced
Язык                                     : Russian
Default                                  : Да
Forced                                   : Нет
Текст #2
Идентификатор                            : 8
Формат                                   : UTF-8
Идентификатор кодека                     : S_TEXT/UTF8
Идентификатор кодека/Информация          : UTF-8 Plain Text
Продолжительность                        : 1 ч. 41 м.
Битрейт                                  : 73 бит/сек
ElementCount                             : 1128
Размер потока                            : 54,5 Кбайт (0%)
Заголовок                                : full
Язык                                     : Russian
Default                                  : Нет
Forced                                   : Нет
Текст #3
Идентификатор                            : 9
Формат                                   : UTF-8
Идентификатор кодека                     : S_TEXT/UTF8
Идентификатор кодека/Информация          : UTF-8 Plain Text
Продолжительность                        : 49 м. 18 с.
Битрейт                                  : 0 бит/сек
ElementCount                             : 15
Размер потока                            : 282 байт (0%)
Заголовок                                : forced
Язык                                     : English
Default                                  : Нет
Forced                                   : Нет
Текст #4
Идентификатор                            : 10
Формат                                   : UTF-8
Идентификатор кодека                     : S_TEXT/UTF8
Идентификатор кодека/Информация          : UTF-8 Plain Text
Продолжительность                        : 1 ч. 31 м.
Битрейт                                  : 51 бит/сек
ElementCount                             : 1107
Размер потока                            : 34,4 Кбайт (0%)
Заголовок                                : full
Язык                                     : English
Default                                  : Нет
Forced                                   : Нет
Текст #5
Идентификатор                            : 11
Формат                                   : UTF-8
Идентификатор кодека                     : S_TEXT/UTF8
Идентификатор кодека/Информация          : UTF-8 Plain Text
Продолжительность                        : 1 ч. 35 м.
Битрейт                                  : 60 бит/сек
ElementCount                             : 1442
Размер потока                            : 42,3 Кбайт (0%)
Заголовок                                : SDH
Язык                                     : English
Default                                  : Нет
Forced                                   : Нет
Меню
00:00:00.000                             : en:Chapter 01
00:09:32.863                             : en:Chapter 02
00:13:13.083                             : en:Chapter 03
00:15:36.894                             : en:Chapter 04
00:19:35.340                             : en:Chapter 05
00:24:57.454                             : en:Chapter 06
00:34:36.991                             : en:Chapter 07
00:40:45.109                             : en:Chapter 08
00:43:59.303                             : en:Chapter 09
00:52:21.805                             : en:Chapter 10
00:58:33.927                             : en:Chapter 11
01:06:37.785                             : en:Chapter 12
01:11:43.257                             : en:Chapter 13
01:17:50.874                             : en:Chapter 14
01:22:39.621                             : en:Chapter 15
01:28:34.309                             : en:Chapter 16
Скриншоты
Дополнительно
Цитата:
Дорожки №2,3,4 взяты с этой раздачи thx: pirs18
Цитата:
Перевод Михаила Чадова доступен благодаря: zav25, Старый, ZeDOK, DREADG, СерП, Shrooms, Roy 33, mv73, 7654, Литти, Loki1982, rmvk15, marveltm, MaXim, Skvor, slava979, miklob.
Работа со звуком Переводман
Цитата:
Перевод Дмитрия Есарева доступен благодаря mihey10.
Работа со звуком mihaildns.
Зарегистрирован:
  • 22-Окт-17 15:21
  • Скачан: 1,261 раз

Скачать .torrent

120 KB

Тип: обычная
Статус: проверено
Размер: 47.73 GB  ·  magnetA47EACEC8B37CD80D2FE8A3898BB45421A00DA62
  • Свернуть поддиректории
  • Развернуть
  • Переключить
  • Увел./умен. окно
загружается...

tyion

Стаж: 10 лет 5 месяцев

Сообщений: 63

flag

tyion · 05-Фев-18 09:24 (спустя 3 месяца 13 дней)

1080?))
Только Blu-ray, только Hardcore!!!
поддерживаю раздачу от 300%

Charmer666

Стаж: 8 лет 10 месяцев

Сообщений: 51

flag

Charmer666 · 20-Окт-18 14:55 (спустя 8 месяцев)

это предыстория появления Венома на земле?
Togliatty
 
All rights reserved © 2017-2018
Loading...
Error