Карточный домик / House of Cards / Сезон: 4 / Серии: 1-13 (13) (Такер Гейтс, Робин Райт) [2016, США, драма, политический триллер, WEBRip 1080p] MVO (FocusStudio)

Статистика раздачи
Размер:  24.03 GB   |   Зарегистрирован:  2 года 7 месяцев   |   .torrent скачан:  2,639 раз

Полный источник: не было 3 дня

Автор
Сообщение

devzz

Стаж: 3 года 11 месяцев

Сообщений: 113

flag

devzz · 12-Мар-16 11:50 (2 года 8 месяцев назад, ред. 21-Мар-16 21:07)

 


Карточный домик / House of Cards
4 сезон

Год выпуска: 2016
Страна: США
Жанр: драма, политический триллер
Продолжительность: 13 x ~41-51 мин
Перевод: профессиональный многоголосый закадровый (FocusStudio)
Режиссёры: Такер Гейтс, Робин Райт, Том Шенклэнд, Алекс Грейвз, Кари Скогланд, Якоб Вербрюгген
В ролях: Кевин Спейси, Робин Райт, Майкл Келли, Махершала Али, Джейн Эткинсон, Нив Кэмпбелл, Дерек Сесил. Нэйтан Дарроу, Ким Диккенс, Элизабет Марвел, Юэль Киннаман, Доминик Макэллигот, Молли Паркер, Пол Спаркс, Себастьян Арселус, Борис Макгайвер, Эллен Бёрстин, Колм Фиор, Сисели Тайсон, Лиза Гэй Хэмилтон...
Описание: Безжалостный президент, Фрэнсис Андервуд, и его амбициозная жена Клэр, не остановятся ни перед чем, чтобы завоевать все. Эта жестокая политическая драма пропитанная жадностью, сексом, любовью и коррупцией.
Релиз:
Перевод: Александр Митраков
Роли озвучивали: Наталья Казначеева, Александр Воронов, Василий Зотов, Станислав Стрелков

Ссылка на предыдущие и альтернативные раздачи
Качество: WEBRip 1080p
Формат: MKV
Видео: AVC, 1920x960 (2:1), 23,976 fps, ~4900 kbps
Аудио Rus: AC3, 48 kHz, 6 ch, 384 kbps, CBR
Аудио Eng: AC3, 48 kHz, 6 ch, 384 kbps, CBR
Субтитры: отсутствуют
Скриншоты
MediaInfo
Format : Matroska
Format version : Version 4 / Version 2
File size : 1.96 GiB
Duration : 48mn 39s
Overall bit rate : 5 757 Kbps
Movie name : House of Cards 4x1 @ FocusStudio
Encoded date : UTC 2016-03-13 13:07:35
Writing application : mkvmerge v8.5.2 ('Crosses') 64bit
Writing library : libebml v1.3.3 + libmatroska v1.4.4
Video
ID : 1
Format : AVC
Format/Info : Advanced Video Codec
Format profile : High@L4.1
Format settings, CABAC : Yes
Format settings, ReFrames : 4 frames
Codec ID : V_MPEG4/ISO/AVC
Duration : 48mn 39s
Bit rate : 4 875 Kbps
Width : 1 920 pixels
Height : 960 pixels
Display aspect ratio : 2.000
Frame rate mode : Constant
Frame rate : 23.976 fps
Color space : YUV
Chroma subsampling : 4:2:0
Bit depth : 8 bits
Scan type : Progressive
Bits/(Pixel*Frame) : 0.110
Stream size : 1.66 GiB (85%)
Writing library : x264 core 148 r2665 a01e339
Encoding settings : cabac=1 / ref=4 / deblock=1:-1:-1 / analyse=0x3:0x133 / me=umh / subme=10 / psy=1 / psy_rd=1.05:0.00 / mixed_ref=1 / me_range=24 / chroma_me=1 / trellis=2 / 8x8dct=1 / cqm=0 / deadzone=21,11 / fast_pskip=1 / chroma_qp_offset=-2 / threads=24 / lookahead_threads=4 / sliced_threads=0 / nr=0 / decimate=1 / interlaced=0 / bluray_compat=0 / constrained_intra=0 / bframes=8 / b_pyramid=2 / b_adapt=2 / b_bias=0 / direct=3 / weightb=1 / open_gop=0 / weightp=2 / keyint=250 / keyint_min=23 / scenecut=40 / intra_refresh=0 / rc_lookahead=60 / rc=crf / mbtree=1 / crf=15.5 / qcomp=0.60 / qpmin=0 / qpmax=69 / qpstep=4 / ip_ratio=1.40 / aq=2:0.90
Default : Yes
Forced : No
Color range : Limited
Color primaries : BT.709
Transfer characteristics : BT.709
Matrix coefficients : BT.709
Audio #1
ID : 2
Format : AC-3
Format/Info : Audio Coding 3
Mode extension : CM (complete main)
Format settings, Endianness : Big
Codec ID : A_AC3
Duration : 48mn 39s
Bit rate mode : Constant
Bit rate : 384 Kbps
Channel(s) : 6 channels
Channel positions : Front: L C R, Side: L R, LFE
Sampling rate : 48.0 KHz
Compression mode : Lossy
Stream size : 134 MiB (7%)
Title : MVO FocusStudio
Language : Russian
Default : Yes
Forced : No
Audio #2
ID : 3
Format : AC-3
Format/Info : Audio Coding 3
Mode extension : CM (complete main)
Format settings, Endianness : Big
Codec ID : A_AC3
Duration : 48mn 39s
Bit rate mode : Constant
Bit rate : 384 Kbps
Channel(s) : 6 channels
Channel positions : Front: L C R, Side: L R, LFE
Sampling rate : 48.0 KHz
Compression mode : Lossy
Stream size : 134 MiB (7%)
Language : English
Default : No
Forced : No
Раздача ведется путем добавления новых серий
Когда раздача ведётся путём добавления новых серий, при каждом добавлении создаётся новый торрент. Чтобы начать докачку новой серии, пользователям необходимо сделать следующее:
(1) остановить скачивание,
(2) удалить старый торрент у себя из клиента (старые серии удалять не надо),
(3) скачать новый торрент и запустить его у себя в клиенте вместо старого, при этом указать клиенту путь в старую папку, куда и должно происходить скачивание новых серий.
Ваш клиент при этом должен произвести хеширование (проверку) старой папки (если не производит сам - помогите ему сделать это), и будет докачивать только те серии, которых у вас ещё нет. Старые серии при этом не удаляются, а продолжают раздаваться!
Eсли вы уже удалили старые серии, то предотвратить повторную закачку старых серий можно, отжав галочку в соответствующих местах при запуске нового торрента. По возможности, желательно не удалять старые серии как можно дольше, чтобы релизёр не столько продолжал раздавать старые серии, а смог сконцентрироваться на новых.

Зарегистрирован:
  • 21-Мар-16 21:07
  • Скачан: 2,639 раз

Скачать .torrent

242 KB

Тип: обычная
Статус: * не проверено
Размер: 24.03 GB  ·  magnet33D0BBCCA047947524334DF2B6E3A5C8CCDF0264
  • Свернуть поддиректории
  • Развернуть
  • Переключить
  • Увел./умен. окно
загружается...

novomax3

Стаж: 8 лет 9 месяцев

Сообщений: 36

flag

novomax3 · 13-Мар-16 12:00 (спустя 1 день)

мрачный сезон.фрэнк сильно давит, как то все безвыходно. не понравилось. раньше легче было,свет в тоннеле был.

Gera1285

Стаж: 5 лет 11 месяцев

Сообщений: 7

flag

Gera1285 · 14-Мар-16 22:34 (спустя 1 день 10 часов)

Как перевод то?

devzz

Стаж: 3 года 11 месяцев

Сообщений: 113

flag

devzz · 16-Мар-16 17:55 (спустя 1 день 19 часов, ред. 16-Мар-16 22:54)

Добавлена 5 серия.
Добавлены 6-8 серии.

KubaRuba

Стаж: 6 лет 7 месяцев

Сообщений: 14

flag

KubaRuba · 19-Мар-16 14:34 (спустя 2 дня 20 часов)

Будет постоянно добавляться?

boristemkin

Стаж: 3 года 4 месяца

Сообщений: 1

flag

boristemkin · 19-Мар-16 16:03 (спустя 1 час 29 мин.)

Да, пожалуйста, скажите когда будут оставшиеся серии? Очень понравилась ваша озвучка!!! Спасибо

Mobster

Стаж: 11 лет 1 месяц

Сообщений: 150

flag

Mobster · 22-Мар-16 18:53 (спустя 3 дня)

Субтитры добавить планируете ?
crooklyn style.

Sergej V.

Стаж: 3 года 3 месяца

Сообщений: 2


Sergej V. · 03-Апр-16 16:55 (спустя 11 дней)

novomax3 писал(а):
70242293мрачный сезон.фрэнк сильно давит, как то все безвыходно. не понравилось. раньше легче было,свет в тоннеле был.
Сейчас на втором сезоне, только что просмотрел 11-ю серию.
Фрэнк целуется взасос с охранником. Когда раньше убивал, был мне более симпатичен, хоть и омерзителен одновременно.
Но уже сейчас ни в какие рамки...
Третий и четвертый сезоны скачаны, буду смотреть всенепременно. Вне зависимости от того, насколько ГГ станет мне неприятен.
Сериал мощный!

vl@d77

Top Bonus 03* 1TB

Стаж: 10 лет 8 месяцев

Сообщений: 2421

flag

vl@d77 · 20-Авг-16 00:20 (спустя 4 месяца 16 дней)

Sergej V. писал(а):
Сейчас на втором сезоне, только что просмотрел 11-ю серию.
Фрэнк целуется взасос с охранником.
А я сейчас посмотрел 11ю серию. Таки да. Мерзкие ощущения
"Я - Уолт Дисней, а это - мой cр@ный Диснейленд!"(с)

инокентийсмоктуновский

Стаж: 10 лет 1 месяц

Сообщений: 105

flag

инокентийсмоктуновский · 18-Фев-17 17:45 (спустя 5 месяцев)

Sergej V. писал(а):
70405564
novomax3 писал(а):
70242293мрачный сезон.фрэнк сильно давит, как то все безвыходно. не понравилось. раньше легче было,свет в тоннеле был.
Сейчас на втором сезоне, только что просмотрел 11-ю серию.
Фрэнк целуется взасос с охранником. Когда раньше убивал, был мне более симпатичен, хоть и омерзителен одновременно.
Но уже сейчас ни в какие рамки...
Третий и четвертый сезоны скачаны, буду смотреть всенепременно. Вне зависимости от того, насколько ГГ станет мне неприятен.
Сериал мощный!
Спойлеры необходимо под кат прятать. Отправлял бы в бан таких сразу.
У всякого должностного лица - своя должностная маска

akremkov

Стаж: 8 лет 11 месяцев

Сообщений: 12

flag

akremkov · 01-Мар-18 11:02 (спустя 1 год)

Сцена в 11 серии второго сезона - шедевральная для кино, не нужно хаять если не понимаете суть !!!

vl@d77

Top Bonus 03* 1TB

Стаж: 10 лет 8 месяцев

Сообщений: 2421

flag

vl@d77 · 01-Мар-18 12:10 (спустя 1 час 7 мин.)

akremkov
Ну, теперь то, когда мы всё знаем про Спейси, эта сцена уже не кажется такой странной)))) И многое объясняет))
"Я - Уолт Дисней, а это - мой cр@ный Диснейленд!"(с)

парега

Стаж: 7 лет 2 месяца

Сообщений: 5


парега · 21-Мар-18 20:15 (спустя 20 дней)

работа политиков она такая,
novomax3 писал(а):
70242293мрачный сезон.фрэнк сильно давит, как то все безвыходно. не понравилось. раньше легче было,свет в тоннеле был.
 
All rights reserved © 2017-2018
Loading...
Error