Профессор Марстон и Чудо-женщины / Professor Marston and the Wonder Women (Анджела Робинсон / Angela Robinson) [2017, США, драма, биография, BDRip 1080p] MVO + Sub Rus, Eng + Original Eng

Статистика раздачи
Размер:  7.31 GB   |   Зарегистрирован:  6 месяцев   |   .torrent скачан:  672 раза
Сиды:  5
Автор
Сообщение

pirs18

Top Seed 05* 640r

Стаж: 8 лет 10 месяцев

Сообщений: 4015

flag

pirs18 · 15-Май-18 10:00 (6 месяцев назад)

 

Профессор Марстон и Чудо-женщины / Professor Marston and the Wonder Women
Страна: США
Жанр: драма, биография
Год выпуска: 2017
Продолжительность: 01:48:23

    Перевод: Профессиональный (многоголосый закадровый)
    Субтитры: русские, английскиe
    Оригинальная аудиодорожка: английский

      Режиссер: Анджела Робинсон / Angela Robinson

        В ролях: Люк Эванс, Ребекка Холл, Белла Хиткот, Конни Бриттон, Моника Джордано, Джей Джей Филд, Крис Конрой, Оливер Платт, Мэгги Кастл, Алекса Хэвинс
        Описание: Гарвардский ученый-психолог Уильям Марстон оставил след в истории, как изобретатель детектора лжи и пионер теории феминизма. Создатель комиксов Макс Гейнс предложил Марстону, высоко ставившему роль комиксов в поп-культурном и идеалогическом пространстве, придумать супергероя слабого пола.

          Тип релиза: BDRip 1080p
          Контейнер: MKV

            Видео: 1916x800 (2,40:1), 23,976 fps, MPEG-4 AVC, ~ 7500 kbps, 0.204 Bits/(Pixel*Frame)

              Аудио: Russian: 48 kHz, AC3, 3/2 (L,C,R,l,r) + LFE ch, ~640.00 kbps avg | BD EUR
              Аудио: English: 48 kHz, DTS, 3/2 (L,C,R,l,r) + LFE ch, ~1509.00 kbps avg
              MediaInfo
              Общее
              Уникальный идентификатор : 220205301247835717937253946407541325952 (0xA5A9FF946DE8BD13B9DF18B0F3A0C080)
              Полное имя : D:\Marston_And_Wonder_Women_BDRip_1080p.mkv
              Формат : Matroska
              Версия формата : Version 4 / Version 2
              Размер файла : 7,31 Гбайт
              Продолжительность : 1 ч. 48 м.
              Общий поток : 9652 Кбит/сек
              Дата кодирования : UTC 2018-05-14 17:29:21
              Программа кодирования : mkvmerge v7.1.0 ('Good Love') 32bit built on Jul 27 2014 12:59:18
              Библиотека кодирования : libebml v1.3.0 + libmatroska v1.4.1
              Видео
              Идентификатор : 1
              Формат : AVC
              Формат/Информация : Advanced Video Codec
              Профиль формата : High@L4.1
              Параметр CABAC формата : Да
              Параметр RefFrames формата : 5 кадров
              Идентификатор кодека : V_MPEG4/ISO/AVC
              Продолжительность : 1 ч. 48 м.
              Битрейт : 7500 Кбит/сек
              Ширина : 1916 пикселей
              Высота : 800 пикселей
              Соотношение сторон : 2,40:1
              Режим частоты кадров : Постоянный
              Частота кадров : 23,976 (24000/1001) кадра/сек
              Цветовое пространство : YUV
              Субдискретизация насыщенности : 4:2:0
              Битовая глубина : 8 бит
              Тип развёртки : Прогрессивная
              Бит/(Пиксели*Кадры) : 0.204
              Размер потока : 5,68 Гбайт (78%)
              Библиотека кодирования : x264 core 155 r2901 7d0ff22
              Настройки программы : cabac=1 / ref=5 / deblock=1:-1:-1 / analyse=0x3:0x133 / me=umh / subme=11 / psy=1 / psy_rd=1.00:0.15 / mixed_ref=1 / me_range=64 / chroma_me=1 / trellis=2 / 8x8dct=1 / cqm=0 / deadzone=21,11 / fast_pskip=0 / chroma_qp_offset=-3 / threads=6 / lookahead_threads=1 / sliced_threads=0 / nr=0 / decimate=0 / interlaced=0 / bluray_compat=0 / constrained_intra=0 / bframes=16 / b_pyramid=2 / b_adapt=2 / b_bias=0 / direct=3 / weightb=1 / open_gop=0 / weightp=2 / keyint=240 / keyint_min=23 / scenecut=40 / intra_refresh=0 / rc_lookahead=60 / rc=2pass / mbtree=0 / bitrate=7500 / ratetol=1.0 / qcomp=0.60 / qpmin=0 / qpmax=69 / qpstep=4 / cplxblur=20.0 / qblur=0.5 / vbv_maxrate=50000 / vbv_bufsize=62500 / nal_hrd=none / filler=0 / ip_ratio=1.40 / pb_ratio=1.30 / aq=1:1.00
              Язык : English
              Default : Да
              Forced : Нет
              Аудио #1
              Идентификатор : 2
              Формат : AC-3
              Формат/Информация : Audio Coding 3
              Параметр Endianness формата : Big
              Идентификатор кодека : A_AC3
              Продолжительность : 1 ч. 48 м.
              Вид битрейта : Постоянный
              Битрейт : 640 Кбит/сек
              Каналы : 6 каналов
              Расположение каналов : Front: L C R, Side: L R, LFE
              Частота : 48,0 КГц
              Частота кадров : 31,250 кадров/сек (1536 SPF)
              Битовая глубина : 16 бит
              Метод сжатия : С потерями
              Размер потока : 496 Мбайт (7%)
              Язык : Russian
              ServiceKind/String : Complete Main
              Default : Да
              Forced : Нет
              Аудио #2
              Идентификатор : 3
              Формат : DTS
              Формат/Информация : Digital Theater Systems
              Режим : 16
              Параметр Endianness формата : Big
              Идентификатор кодека : A_DTS
              Продолжительность : 1 ч. 48 м.
              Вид битрейта : Постоянный
              Битрейт : 1509 Кбит/сек
              Каналы : 6 каналов
              Расположение каналов : Front: L C R, Side: L R, LFE
              Частота : 48,0 КГц
              Частота кадров : 93,750 кадра/сек (512 SPF)
              Битовая глубина : 24 бит
              Метод сжатия : С потерями
              Размер потока : 1,14 Гбайт (16%)
              Язык : English
              Default : Нет
              Forced : Нет
              Текст #1
              Идентификатор : 4
              Формат : UTF-8
              Идентификатор кодека : S_TEXT/UTF8
              Идентификатор кодека/Информация : UTF-8 Plain Text
              Продолжительность : 1 ч. 47 м.
              Битрейт : 74 бит/сек
              ElementCount : 1135
              Размер потока : 58,9 Кбайт (0%)
              Заголовок : Русские
              Язык : Russian
              Default : Нет
              Forced : Нет
              Текст #2
              Идентификатор : 5
              Формат : UTF-8
              Идентификатор кодека : S_TEXT/UTF8
              Идентификатор кодека/Информация : UTF-8 Plain Text
              Продолжительность : 1 ч. 41 м.
              Битрейт : 52 бит/сек
              ElementCount : 1094
              Размер потока : 38,9 Кбайт (0%)
              Заголовок : Английские
              Язык : English
              Default : Нет
              Forced : Нет
              Меню
              00:00:00.000 : en:00:00:00.000
              00:07:45.507 : en:00:07:45.507
              00:15:22.338 : en:00:15:22.338
              00:21:39.965 : en:00:21:39.965
              00:29:02.908 : en:00:29:02.908
              00:33:00.520 : en:00:33:00.520
              00:39:13.017 : en:00:39:13.017
              00:46:04.387 : en:00:46:04.387
              00:51:03.602 : en:00:51:03.602
              00:57:10.093 : en:00:57:10.093
              01:03:01.152 : en:01:03:01.152
              01:09:08.478 : en:01:09:08.478
              01:14:43.229 : en:01:14:43.229
              01:20:15.936 : en:01:20:15.936
              01:26:21.551 : en:01:26:21.551
              01:34:06.140 : en:01:34:06.140
              Скриншоты

              Раздаю до первых 5-ти скачавших, на раздачи не возвращаюсь...
              Зарегистрирован:
              • 15-Май-18 10:00
              • Скачан: 672 раза

              Скачать .torrent

              37 KB

              Тип: обычная
              Статус: * не проверено
              Размер: 7.31 GB  ·  magnet16A1B8C1304EC54A29A7265261CCCC167A8F439D
              • Свернуть поддиректории
              • Развернуть
              • Переключить
              • Увел./умен. окно
              загружается...

               
              All rights reserved © 2017-2018
              Loading...
              Error