NBA 1985-1986 / Playoff / EC1R / Game 1 / 18.04.1986 / Washington Bullets @ Philadelphia Sixers [1999, Basketball, TVRip]

Статистика раздачи
Размер:  1.46 GB   |   Зарегистрирован:  4 года 1 месяц   |   .torrent скачан:  97 раз
Сиды:  2
Автор
Сообщение

m4rtyr

Moderator

Стаж: 10 лет

Сообщений: 2802

m4rtyr · 09-Окт-11 14:32 (7 лет 1 месяц назад, ред. 09-Окт-11 14:50)

 

NBA 1985-1986 / Playoff / EC1R / Game 1 / 18.04.1986 / Washington Bullets @ Philadelphia Sixers


Год выпуска: 1999
Вид спорта: Basketball
Участники: Moses Malone, Charles Barkley, Julius Erving, Maurice Cheeks, Bob McAdoo, Sedale Threatt - Jeff Malone, Jeff Ruland, Cliff Robinson, Gus Williams, Dan Roundfield, Manute Bol
Продолжительность: 01:38:32
Комментарий: Профессиональный (двухголосый)
Язык комментариев: English
Описание: Потрясающий по именам состав Sixers принимает у себя дома команду из столицы в первой игре серий плейофф 1986 года!
Ripper: RayAllen34.
Качество: TVRip
Формат: AVI
Видео кодек: XviD
Аудио кодек: MP3
Сетка ПО 1986 года: http://www.basketball-reference.com/playoffs/NBA_1986.html
Все игры серий плейофф на GOSTRACKER.XYZ: http://GOSTRACKER.XYZ/viewtopic.php?t=1831234
Тех.данные видео
General
Complete name : D:\Basketball Video\NBAgames\.Playoffs\NBA.1986.Playoffs\EC1R.Bullets-Sixers\NBA.1986.EC1R.G1.Bullets@Sixers.avi
Format : AVI
Format/Info : Audio Video Interleave
File size : 1.46 GiB
Duration : 1h 38mn
Overall bit rate : 2 118 Kbps
Writing application : VirtualDubMod 1.5.10.2 (build 2540/release)
Writing library : VirtualDubMod build 2540/release
Video
ID : 0
Format : MPEG-4 Visual
Format profile : Advanced Simple@L5
Format settings, BVOP : 2
Format settings, QPel : No
Format settings, GMC : No warppoints
Format settings, Matrix : Custom
Muxing mode : Packed bitstream
Codec ID : XVID
Codec ID/Hint : XviD
Duration : 1h 38mn
Bit rate : 1 979 Kbps
Width : 576 pixels
Height : 432 pixels
Display aspect ratio : 4:3
Frame rate : 29.970 fps
Color space : YUV
Chroma subsampling : 4:2:0
Bit depth : 8 bits
Scan type : Progressive
Compression mode : Lossy
Bits/(Pixel*Frame) : 0.265
Stream size : 1.36 GiB (93%)
Writing library : XviD 64
Audio
ID : 1
Format : MPEG Audio
Format version : Version 1
Format profile : Layer 3
Mode : Joint stereo
Codec ID : 55
Codec ID/Hint : MP3
Duration : 1h 38mn
Bit rate mode : Constant
Bit rate : 128 Kbps
Channel(s) : 2 channels
Sampling rate : 48.0 KHz
Compression mode : Lossy
Delay relative to video : 24ms
Stream size : 90.2 MiB (6%)
Alignment : Aligned on interleaves
Interleave, duration : 33 ms (1.00 video frame)
Interleave, preload duration : 504 ms
Скриншоты
Счет
Bullets@Sixers
95@94
Зарегистрирован:
  • 13-Окт-14 22:20
  • Скачан: 97 раз

Скачать .torrent

15 KB

Тип: обычная
Статус: проверено
Размер: 1.46 GB  ·  magnet73259C5A97A07BD1AD425B5622ADD693D5806366
  • Свернуть поддиректории
  • Развернуть
  • Переключить
  • Увел./умен. окно
загружается...

Russian_watson

Стаж: 12 лет 9 месяцев

Сообщений: 8

flag

Russian_watson · 22-Мар-15 21:30 (спустя 3 года 5 месяцев)

Друзья, пораздавайте игру! Спасибо!

Вольфганг Хогельман

Стаж: 7 лет 7 месяцев

Сообщений: 1049

flag

Вольфганг Хогельман · 18-Май-18 22:27 (спустя 3 года 1 месяц)

Интересный матч, ещё одна случайная победа. Спасибо за раздачу
 
All rights reserved © 2017-2018
Loading...
Error