Карточный домик / House of Cards / Сезон: 5 / Серии: 1-13 из 13 (Джеймс Фоули, Джон Дэвид Коулз, Карл Франклин) [2017, США, драма, WEBRip 2160p] MVO (Amedia) + Original + Sub (Rus, Eng)

Статистика раздачи
Размер:  173.47 GB   |   Зарегистрирован:  11 месяцев   |   .torrent скачан:  961 раз
Сиды:  4   Личи:  2
Автор
Сообщение

MegaCrash

Стаж: 8 лет 9 месяцев

Сообщений: 21

flag

MegaCrash · 28-Ноя-17 13:34 (11 месяцев назад, ред. 29-Ноя-17 01:31)

 

Карточный домик / House of Cards
Год выпуска: 2017
Страна: США
Жанр: драма
Продолжительность: ~ 55 минут
Перевод: Профессиональный (многоголосый закадровый) Amedia
Режиссёр: Джеймс Фоули, Джон Дэвид Коулз, Карл Франклин
В ролях: Кевин Спейси, Робин Райт, Кейт Мара, Кори Столл, Майкл Келли, Сакина Джэффри, Ларри Пайн, Джейн Эткинсон, Кевин Килнер, Жаклин Джонс, Рюэл Пендлтон, Гилберт Сото, Кристен Коннолли, Сандрин Холт, Махершалалхашбаз Али, Майкл Гилл, Рэйчел Броснахэн, Бен Дэниелс, Тони Сайпресс, Констанс Зиммер
Описание: Безжалостный конгрессмен, Фрэнсис Андервуд, и его амбициозная жена Клэр, не остановятся ни перед чем, чтобы завоевать все. Эта жестокая политическая драма пропитанная жадностью, сексом, любовью и коррупцией.
Сэмпл: http://multi-up.com/1177948
Качество: WEBRip 2160p
Формат: MKV
Видео: x264, 3840x1920, 23.976 fps, ~ 33.3 mbps
Аудио: AC3, 48 kHz, 2 ch, 192 kbps, CBR - Rus
Аудио 2: AC3, 48 kHz, 6 ch, 384 kbps, CBR - Eng
Субтитры: русские (амедиа), английские
Реклама: отсутствует
MediaInfo
General
Unique ID : 206073044920807069212840510746334987914 (0x9B08398C2044C7A99967F022F822068A)
Complete name : D:\Downloads\House of Cards (Season 05) 2160p\S05E01 Chapter 53.mkv
Format : Matroska
Format version : Version 4 / Version 2
File size : 12.9 GiB
Duration : 55 min 22 s
Overall bit rate : 33.4 Mb/s
Encoded date : UTC 2017-11-27 20:25:02
Writing application : mkvmerge v15.0.0 ('Duel with the Devil') 64-bit
Writing library : libebml v1.3.5 + libmatroska v1.4.5
Video
ID : 1
Format : AVC
Format/Info : Advanced Video Codec
Format profile : High@L5.1
Format settings, CABAC : Yes
Format settings, RefFrames : 6 frames
Codec ID : V_MPEG4/ISO/AVC
Duration : 54 min 31 s
Bit rate : 33.3 Mb/s
Width : 3 840 pixels
Height : 1 920 pixels
Display aspect ratio : 2.000
Frame rate mode : Constant
Frame rate : 23.976 (24000/1001) FPS
Color space : YUV
Chroma subsampling : 4:2:0
Bit depth : 8 bits
Scan type : Progressive
Bits/(Pixel*Frame) : 0.189
Stream size : 12.7 GiB (98%)
Writing library : x264 core 144 r2525 40bb568
Encoding settings : cabac=1 / ref=6 / deblock=1:-3:-3 / analyse=0x3:0x133 / me=umh / subme=10 / psy=1 / psy_rd=1.00:0.00 / mixed_ref=1 / me_range=48 / chroma_me=1 / trellis=2 / 8x8dct=1 / cqm=0 / deadzone=21,11 / fast_pskip=0 / chroma_qp_offset=-2 / threads=12 / lookahead_threads=2 / sliced_threads=0 / nr=0 / decimate=0 / interlaced=0 / bluray_compat=0 / constrained_intra=0 / bframes=8 / b_pyramid=2 / b_adapt=2 / b_bias=0 / direct=3 / weightb=1 / open_gop=0 / weightp=2 / keyint=250 / keyint_min=23 / scenecut=40 / intra_refresh=0 / rc=crf / mbtree=0 / crf=19.0 / qcomp=0.60 / qpmin=0 / qpmax=69 / qpstep=4 / ip_ratio=1.30 / pb_ratio=1.20 / aq=3:0.80
Language : English
Default : Yes
Forced : No
Audio #1
ID : 2
Format : AC-3
Format/Info : Audio Coding 3
Format settings, Endianness : Big
Codec ID : A_AC3
Duration : 55 min 22 s
Bit rate mode : Constant
Bit rate : 192 kb/s
Channel(s) : 2 channels
Channel positions : Front: L R
Sampling rate : 48.0 kHz
Frame rate : 31.250 FPS (1536 SPF)
Bit depth : 16 bits
Compression mode : Lossy
Stream size : 76.0 MiB (1%)
Language : Russian
Service kind : Complete Main
Default : Yes
Forced : No
Audio #2
ID : 3
Format : AC-3
Format/Info : Audio Coding 3
Format settings, Endianness : Big
Codec ID : A_AC3
Duration : 55 min 22 s
Bit rate mode : Constant
Bit rate : 384 kb/s
Channel(s) : 6 channels
Channel positions : Front: L C R, Side: L R, LFE
Sampling rate : 48.0 kHz
Frame rate : 31.250 FPS (1536 SPF)
Bit depth : 16 bits
Compression mode : Lossy
Stream size : 152 MiB (1%)
Language : English
Service kind : Complete Main
Default : No
Forced : No
Text #1
ID : 4
Format : UTF-8
Codec ID : S_TEXT/UTF8
Codec ID/Info : UTF-8 Plain Text
Duration : 52 min 19 s
Bit rate : 105 b/s
Count of elements : 538
Stream size : 40.4 KiB (0%)
Language : Russian
Default : Yes
Forced : No
Text #2
ID : 5
Format : UTF-8
Codec ID : S_TEXT/UTF8
Codec ID/Info : UTF-8 Plain Text
Duration : 52 min 17 s
Bit rate : 74 b/s
Count of elements : 751
Stream size : 28.6 KiB (0%)
Language : English
Default : No
Forced : No
Скриншоты
Предыдущие и альтернативные раздачи
Зарегистрирован:
  • 28-Ноя-17 13:34
  • Скачан: 961 раз

Скачать .torrent

868 KB

Тип: обычная
Статус: * не проверено
Размер: 173.47 GB  ·  magnet7EF401C844B31C51040D0F1BA771059D6E9E13FE
  • Свернуть поддиректории
  • Развернуть
  • Переключить
  • Увел./умен. окно
загружается...

Николай_Антонов

Стаж: 2 года 6 месяцев

Сообщений: 5

flag

Николай_Антонов · 27-Янв-18 02:11 (спустя 1 месяц 28 дней)

Просто загружайте такие торренты, потому что 4K - это будущее, и опыт поиска такого качества уникален!
Спасибо!

MegaCrash

Стаж: 8 лет 9 месяцев

Сообщений: 21

flag

MegaCrash · 31-Янв-18 00:12 (спустя 3 дня)

Николай_Антонов писал(а):
74681016Просто загружайте такие торренты, потому что 4K - это будущее, и опыт поиска такого качества уникален!
Спасибо!
Качество кстати дерьмовое. Оно ведь создано для просмотра "онлайна". На данный момент сериалы в 4к выглядят так себе. Оно то 4к, но в некоторых местах очень много шума из-за сжатия. Но, что есть, то есть.

stuzer

Стаж: 9 лет 3 месяца

Сообщений: 17

flag

stuzer · 09-Май-18 19:23 (спустя 3 месяца 9 дней)

когда последний сезон?

MrTareQ

Стаж: 1 год 1 месяц

Сообщений: 8

flag

MrTareQ · 12-Май-18 17:28 (спустя 2 дня 22 часа)

Hello guys ... how can i find and download a "Vis a Vis " season 3 spanish series?

MegaCrash

Стаж: 8 лет 9 месяцев

Сообщений: 21

flag

MegaCrash · 27-Май-18 19:44 (спустя 15 дней)

MrTareQ писал(а):
75340784Hello guys ... how can i find and download a "Vis a Vis " season 3 spanish series?
That's definitely not the right place to ask such a thing. I've no idea.

vl@d77

Top Bonus 03* 1TB

Стаж: 10 лет 8 месяцев

Сообщений: 2428

flag

vl@d77 · 23-Окт-18 22:21 (спустя 4 месяца 27 дней)

Прекрасный киносериал. Прекрасный и ...подлый, лживый и наглый, как вся Штатовская политика. И да, жаль, что мр. Спейси попал во все эти пидеро-скандалы. Видно, что в последней серии уже не Френк Андервуд борется за власть, а сам Спейси пытается отбиться от всего мира. Да, жаль. Без него сериал можно вытряхнуть на свалку.
"Я - Уолт Дисней, а это - мой cр@ный Диснейленд!"(с)

TegynN

Стаж: 6 лет 7 месяцев

Сообщений: 39

flag

TegynN · 29-Окт-18 10:57 (спустя 5 дней)

Да, без Спейси и смотреть продолжение не хочется..., если оно будет.
 
All rights reserved © 2017-2018
Loading...
Error