Неверующие / The Unbelievers (Гас Холверда) [2013, США, документальный, WEB-DL HD (720p)] MVO, Original + SUB (rus, eng))

Статистика раздачи
Размер:  2.53 GB   |   Зарегистрирован:  3 года 3 месяца   |   .torrent скачан:  964 раза
Сиды:  2
Автор
Сообщение

apple_monster

RG Apple

Стаж: 7 лет 8 месяцев

Сообщений: 782

flag

apple_monster · 03-Авг-15 23:16 (3 года 3 месяца назад)

 

Неверующие / The Unbelievers
"What are you willing to believe?"
7.361 / 10

Год выпуска: 2013
Страна: США
Жанр: документальный
Продолжительность: 77 мин.
Перевод: Многоголосый закадровый перевод
Оригинальная аудиодорожка: Есть
Субтитры: Русские полные и английские полные
Режиссёр: Гас Холверда
Сценарий: Гас Холверда, Люк Холверда, Лоуренс Краусс
Продюсер: Гас Холверда, Люк Холверда, Джейсон Спайсэк
Оператор: Люк Холверда
Композитор: Томас Амасон, Крис Хендерсон
Монтаж: Гас Холверда, Люк Холверда
В ролях: Ричард Докинз, Лоуренс Краусс, Вуди Аллен, Вернер Херцог, Рики Джервэйс, Билл Пуллман, Кэмерон Диаз, Стивен Хокинг, Сара Силверман, Кормак МакКарти
Сборы в США: $14 400
Мировая премьера: 29 апреля 2013
Описание: Ричард Докинз и Лоуренс Краусс путешествуют по миру и открыто заявляют о важности науки и разума в современном мире. Они призывают избавиться от устаревших религиозных и политически мотивированных взглядов при рассмотрении важных вопросов современности. Работу выдающихся просветителей поддерживают известные личности, которые также приняли участие в этом фильме.
Качество исходника: WEB-DL 720p (HDClub)
Качество: WEB-DL
Тип: 720p
Контейнер: m4v
Видео: 1280x676 at 23.976 fps, MPEG-4 AVC, ~4000 kbps avg
Аудио#1: Russian: 48 kHz, ААС, 2/0 (L,R), ~160.00 kbps avg |Многоголосый закадровый, "Vert Dider"|
Аудио#2: English: 48 kHz, ААС, 2/0 (L,R), ~160.00 kbps avg
Аудио#3: English: 48 kHz, AC3, 3/2 (L,C,R,l,r) + LFE ch, ~384.00 kbps avg
Субтитры №1: Russian: |Полные|
Субтитры №2: English: |Полные|
iTunes Meta Tags for country us
Код:
Name: The Unbelievers
Artist: Gus Holwerda
Genre: Documentary
Release Date: 2013-04-29T08:00:00Z
Description: Ричард Докинз и Лоуренс Краусс путешествуют по миру и открыто заявляют о важности науки и разума в современном мире. Они призывают избавиться от устаревших религиозных и политически мотивированных взглядов при рассмотрении важных вопросов современности. Работу выдающихся просветителей поддерживают известные личности, которые также приняли участие в этом фильме.
Long Description: Ричард Докинз и Лоуренс Краусс путешествуют по миру и открыто заявляют о важности науки и разума в современном мире. Они призывают избавиться от устаревших религиозных и политически мотивированных взглядов при рассмотрении важных вопросов современности. Работу выдающихся просветителей поддерживают известные личности, которые также приняли участие в этом фильме.
Rating: Unrated
Studio: Gravitas Ventures
Cast: Ричард Докинз, Лоуренс Краусс, Вуди Аллен, Вернер Херцог, Рики Джервэйс, Билл Пуллман, Кэмерон Диаз, Стивен Хокинг, Сара Силверман, Кормак МакКарти
Director: Гас Холверда
Producers: Гас Холверда, Люк Холверда, Джейсон Спайсэк
Screenwriters: Гас Холверда, Люк Холверда, Лоуренс Краусс
Copyright: © 2013 JJC Films, LLC.
contentID: 860364931
XID: Apple:vendor_id:2013-741906
Sort Name: Unbelievers
MediaInfo 720p Release
Код:
General
Complete name : The Unbelievers (HD).m4v
Format : MPEG-4
Codec ID : M4V
File size : 2.53 GiB
Duration : 1h 16mn
Overall bit rate mode : Variable
Overall bit rate : 4 749 Kbps
Movie name : The Unbelievers
Performer : Gus Holwerda
Director : Гас Холверда
Actor : Ричард Докинз / Лоуренс Краусс / Вуди Аллен / Вернер Херцог / Рики Джервэйс / Билл Пуллман / Кэмерон Диаз / Стивен Хокинг / Сара Силверман / Кормак МакКарти
Screenplay by : Гас Холверда / Люк Холверда / Лоуренс Краусс
Producer : Гас Холверда / Люк Холверда / Джейсон Спайсэк
Production studio : Gravitas Ventures
Genre : Documentary
ContentType : Short Film
Description : Ричард Докинз и Лоуренс Краусс путешествуют по миру и открыто заявляют о важности науки и разума в современном мире. Они призывают избавиться от устаревших религиозных и политически мотивированных взглядов при рассмотрении важных вопросов современности. Работу выдающихся просветителей поддерживают известные личности, которые также приняли участие в этом фильме.
Recorded date : UTC 2013-04-29 08:00:00
Encoded date : UTC 2015-07-03 11:55:05
Tagged date : UTC 2015-07-03 12:05:42
Copyright : © 2013 JJC Films, LLC.
Cover : Yes
Rating : None
Title/Sort : Unbelievers
LongDescription : Ричард Докинз и Лоуренс Краусс путешествуют по миру и открыто заявляют о важности науки и разума в современном мире. Они призывают избавиться от устаревших религиозных и политически мотивированных взглядов при рассмотрении важных вопросов современности. Работу выдающихся просветителей поддерживают известные личности, которые также приняли участие в этом фильме.
HDVideo : Yes
AppleStoreCatalogID : 860364931
Vendor : Apple:vendor_id:2013-741906
ContentRating : mpaa|Unrated|???|
Video #1
ID : 1
Format : AVC
Format/Info : Advanced Video Codec
Format profile : High@L3.1
Format settings, CABAC : No
Format settings, ReFrames : 2 frames
Codec ID : avc1
Codec ID/Info : Advanced Video Coding
Duration : 1h 16mn
Bit rate : 4 038 Kbps
Width : 1 280 pixels
Height : 676 pixels
Display aspect ratio : 1.893
Frame rate mode : Variable
Frame rate : 23.976 fps
Minimum frame rate : 23.810 fps
Maximum frame rate : 24.390 fps
Color space : YUV
Chroma subsampling : 4:2:0
Bit depth : 8 bits
Scan type : Progressive
Bits/(Pixel*Frame) : 0.195
Stream size : 2.15 GiB (85%)
Title : Main Program
Language : English
Encoded date : UTC 2015-07-03 11:55:05
Tagged date : UTC 2015-07-03 11:57:15
Color range : Limited
Color primaries : BT.709
Transfer characteristics : BT.709
Matrix coefficients : BT.709
Video #2
ID : 8
Format : JPEG
Codec ID : jpeg
Duration : 1h 16mn
Bit rate mode : Variable
Bit rate : 646 bps
Width : 640 pixels
Height : 338 pixels
Display aspect ratio : 1.893
Frame rate mode : Variable
Frame rate : 0.002 fps
Minimum frame rate : 0.001 fps
Maximum frame rate : 0.013 fps
Color space : YUV
Chroma subsampling : 4:2:0
Bit depth : 8 bits
Compression mode : Lossy
Bits/(Pixel*Frame) : 1.493
Stream size : 276 KiB (0%)
Title : Chapter Images
Language : English
Encoded date : UTC 2015-07-03 11:57:17
Tagged date : UTC 2015-07-03 11:57:17
Audio #1
ID : 2
Format : AAC
Format/Info : Advanced Audio Codec
Format profile : LC
Codec ID : 40
Duration : 1h 16mn
Bit rate mode : Variable
Bit rate : 157 Kbps
Maximum bit rate : 235 Kbps
Channel(s) : 2 channels
Channel positions : Front: L R
Sampling rate : 48.0 KHz
Compression mode : Lossy
Stream size : 85.7 MiB (3%)
Title : Russian MVO "Vert Dider" Stereo
Language : Russian
Encoded date : UTC 2015-07-03 11:55:05
Tagged date : UTC 2015-07-03 11:55:20
Audio #2
ID : 3
Format : AAC
Format/Info : Advanced Audio Codec
Format profile : LC
Codec ID : 40
Duration : 1h 16mn
Bit rate mode : Variable
Bit rate : 160 Kbps
Maximum bit rate : 254 Kbps
Channel(s) : 2 channels
Channel positions : Front: L R
Sampling rate : 48.0 KHz
Compression mode : Lossy
Stream size : 87.6 MiB (3%)
Title : English Stereo
Language : English
Encoded date : UTC 2015-07-03 11:55:05
Tagged date : UTC 2015-07-03 11:55:21
Audio #3
ID : 4
Format : AC-3
Format/Info : Audio Coding 3
Mode extension : CM (complete main)
Format settings, Endianness : Big
Codec ID : ac-3
Duration : 1h 16mn
Bit rate mode : Constant
Bit rate : 384 Kbps
Channel(s) : 6 channels
Channel positions : Front: L C R, Side: L R, LFE
Sampling rate : 48.0 KHz
Bit depth : 16 bits
Compression mode : Lossy
Stream size : 210 MiB (8%)
Title : English DD 5.1
Language : English
Encoded date : UTC 2015-07-03 11:55:05
Tagged date : UTC 2015-07-03 11:57:15
Text #1
ID : 5
Format : Timed Text
Muxing mode : sbtl
Codec ID : tx3g
Duration : 1h 7mn
Bit rate mode : Variable
Bit rate : 140 bps
Stream size : 69.3 KiB (0%)
Title : Russian Subtitle
Language : Russian
Encoded date : UTC 2015-07-03 11:55:05
Tagged date : UTC 2015-07-03 11:55:05
Text #2
ID : 6
Format : Timed Text
Muxing mode : sbtl
Codec ID : tx3g
Duration : 1h 16mn
Bit rate mode : Variable
Bit rate : 141 bps
Stream size : 78.5 KiB (0%)
Title : English Subtitle
Language : English
Encoded date : UTC 2015-07-03 11:55:05
Tagged date : UTC 2015-07-03 11:55:05
Text #3
ID : 7
Format : Timed Text
Codec ID : text
Duration : 1h 16mn
Bit rate mode : Constant
Bit rate : 0 bps
Stream size : 161 Bytes (0%)
Title : Chapter Titles
Language : English
Encoded date : UTC 2015-07-03 11:57:15
Tagged date : UTC 2015-07-03 11:57:15
Menu
00:00:00.000 : Chapter 1
00:13:09.000 : Chapter 2
00:32:33.000 : Chapter 3
00:41:23.000 : Chapter 4
00:57:48.000 : Chapter 5
01:07:52.000 : Chapter 6
01:09:10.000 : Chapter 7
Скриншоты 720p Release
Цитата:
  • Сохранены оригинальные главы.
  • Фильм переведен и озвучен студией «Vert Dider». Текст читали: Михаил Прошин, Александр Качкин, Ирина Завтонова, Богдан Стецюк, Евгений Баженов, Максим Демах, Алексей Егоренков. Перевод: Елена Люско, Екатерина Соколова, Вадим Ившин, Екатерина Сухова, Насим Калиев. Редактирование перевода: Елена Люско, Екатерина Соколова, Михаил Прошин. Монтаж звука: Александр Качкин, Илья Абилов.



Релиз подготовлен для просмотра на Apple TV, iPad, iPhone, iPod Touch.
Для просмотра данного релиза на компьютере с ОС Windows рекомендуется использовать VLC media player
Зарегистрирован:
  • 03-Авг-15 23:16
  • Скачан: 964 раза

Скачать .torrent

26 KB

Тип: обычная
Статус: проверено
Размер: 2.53 GB  ·  magnet7031B267FD266E93F2C723B2A088379619BF797A
  • Свернуть поддиректории
  • Развернуть
  • Переключить
  • Увел./умен. окно
загружается...
Как-то так

strau

Стаж: 10 лет 5 месяцев

Сообщений: 82

flag

strau · 04-Окт-15 02:15 (спустя 2 месяца)

like it

Mr.French

Стаж: 8 лет 10 месяцев

Сообщений: 65

flag

Mr.French · 03-Ноя-15 06:12 (спустя 30 дней, ред. 03-Ноя-15 06:12)

Субтитры проигрываются на большей скорости чем речь людей, говорящих в кадре.
Пришлось подгонять в своём плеере.
Update: Не просто на большой скорости, а на разной скорости.

cover-13

Стаж: 8 лет 9 месяцев

Сообщений: 306

flag

cover-13 · 13-Янв-16 16:25 (спустя 2 месяца 10 дней, ред. 14-Янв-16 23:37)

если создателя нет, то в кого не верят атеисты?)

mosi state

Стаж: 4 года 6 месяцев

Сообщений: 244

flag

mosi state · 16-Янв-16 10:14 (спустя 2 дня 17 часов, ред. 20-Янв-16 06:28)

del

Вольф Рамм

Стаж: 10 лет

Сообщений: 34

flag

Вольф Рамм · 17-Янв-16 22:41 (спустя 1 день 12 часов)

cover-13 писал(а):
69733966если создателя нет, то в кого не верят атеисты?)
ничего глупее не слышал в жизни))) Был бы я добрее, прямо приз дал бы.

cover-13

Стаж: 8 лет 9 месяцев

Сообщений: 306

flag

cover-13 · 18-Янв-16 17:02 (спустя 18 часов)

Вольф Рамм
тогда тебе наверное понравятся русские комедии. а что быть добрее атеизм не позволяет?)

SUFFERING_FALLEN

Стаж: 9 лет 3 месяца

Сообщений: 206

flag

SUFFERING_FALLEN · 27-Мар-16 14:10 (спустя 2 месяца 8 дней)

Если бог существует, то зачем в него верить? ахахах
Idm, Indietronic, Nu Gaze, Drum`n`Bass, Punk, Post-Rock

DeepKamate

Стаж: 9 лет 3 месяца

Сообщений: 187

flag

DeepKamate · 10-Фев-18 19:02 (спустя 1 год 10 месяцев)

качайте скорее, а то скоро придётся уйти с раздачи. А тут и так мало кто есть...
Я всего лишь скромный переводчик, но все-таки при желании обращайтесь, помогу и со смысловой редакцией.
Ищу работу по специальности: «переводчик-плотник». Стаж: «пять колото-резанных ран начальнику», рабочие сроки: «3 года в колонии строгого режима»… -@Ка-тян

nhl-fan

Стаж: 8 лет 11 месяцев

Сообщений: 226

flag

nhl-fan · 01-Июн-18 23:21 (спустя 3 месяца 19 дней)

По-больше бы таких фильмов, и по-меньше забитых клерикалов, которые хотят жить в средних веках!
Спасибо за отличный фильм!
 
All rights reserved © 2017-2018
Loading...
Error