ѕодлинна€ истори€ поручика –жевского (»рина ћ€кишева) [2014, гусарский водевиль, WEB-DLRip] »ркутский областной музыкальный театр имени Ќ. ћ. «агурского

—татистика раздачи
–азмер:  2.17 GB   |   «арегистрирован:  4 мес€ца 24 дн€   |   .torrent скачан:  153 раза
—иды:  2
јвтор
—ообщение

dmitry2264

VIP («аслуженный)

—таж: 10 лет 1 мес€ц

—ообщений: 7849

flag

dmitry2264 · 23-»юн-18 12:48 (4 мес€ца 24 дн€ назад)

 

ѕодлинна€ истори€ поручика –жевского Ќазвание театра: »ркутский областной музыкальный театр имени Ќ. ћ. «агурского.
√од выпуска: 2014.
∆анр: гусарский водевиль.
ѕродолжительность: 02:11:31.
–ежиссер: »рина ћ€кишева.
ƒействующие лица и исполнители:
–жевский јлександр, гусарский поручик - —танислав √рицких.
–жевска€ ≈лена јндреевна, его матушка, помещица - заслуженна€ артистка –—‘—– Ќаталь€ ƒанилина, ¬алентина ≈рмошкина.
√лафира, экономка –жевских - »рина ћ€кишева, ёли€ ѕанченко, ¬ера ўепеткина.
ќболенский ƒмитрий, гусарский корнет - ≈гор  ириленко, √ейрат Ўабанов.
—околов ћихаил ¬асильевич, приват-доцент - —танислав „ернышев.
Ѕазаров Ќиколай ѕетрович, обедневший граф, сосед –жевских - јндрей ƒанилов (старший).
Ѕазарова Ќатали, его дочь - ќльга ѕопова, »нна ∆аркова.
ѕанин Ћев Ќиколаевич, отставной гусарский полковник - ¬ладимир јнтипов, народный артист –оссии ¬ладимир яковлев.
ѕанина ћарина Ћеонидовна, его жена, бывша€ актриса - јлександра √аращук, јнна –ыбникова.
ѕанина “ать€на, его дочь - ≈вгени€  алашникова, —офь€ —учкова.
ƒенщик –жевского - ¬италий «айцев.
ƒенщик ќболенского - –оман ¬инокуров, –оман Ћукь€нчик, заслуженна€ артистка –оссии ћари€ —трельченко, —ергей ѕолухин.
ќ спектакле:
ѕоручик –жевский вместе со своим другом корнетом ќболенским возвращаетс€ с войны 1812 года в свою деревню, не зна€, что корнет, завиду€ подвигам поручика, написал о нем книгу баек и анекдотов, котора€ быстро разошлась по –оссии. ¬ деревне ждут совсем Ђдругогої –жевского. ќтец невесты –жевского Ќатали Ц Ѕазаров, и слышать не хочет о таком женихе. «ато соседка ѕанина жаждет выдать за поручика свою дочь “ать€ну.  омеди€ положений. ¬ итоге, естественно, счастливый конец.
ƒополнительна€ информаци€:
—трана: –осси€ .
 омпозитор: ¬ладимир Ѕаскин.
Ћибретто: ќлег —олод, јндрей ћаксимков.
—тихи: ». Ѕедных.
ƒирижер-постановщик: ≈вгений «еленцов.
—ценографи€ и костюмы: Ќатали€ ”бр€това.
Ѕалетмейстер-постановщик: ƒмитрий ”стюжанин (—анкт-ѕетербург).
’ормейстеры: Ќаталь€ Ћадыгина, ”ль€на „угуевска€.

ќ спектакле и ещЄ.
–елиз
–ип sharky.

 ачество видео:...WEB-DLRip
‘ормат:.................AVI
¬идео:..704x528 (1.33:1), 25 fps, XviD build 47 ~2168 kbps avg, 0.23 bit/pixel
јудио:..48 kHz, AC3 Dolby Digital, 2/0 (L,R) ch, ~192 kbps
ќтчет Media Info
General
Complete name : Podlinnaya.istoriya.porut4ika.Rzhevskogo_Irkutskij.OMT.im.N.M.Zagurskogo.2014.XviD. WEB-DLRip.fenixclub.avi
Format : AVI
Format/Info : Audio Video Interleave
Format profile : OpenDML
File size : 2.17 GiB
Duration : 2h 11mn
Overall bit rate : 2 367 Kbps
Writing application : VirtualDubMod 1.5.10.2 (build 2540/release)
Writing library : VirtualDubMod build 2540/release
Video
ID : 0
Format : MPEG-4 Visual
Format profile : Advanced Simple@L5
Format settings, BVOP : 1
Format settings, QPel : No
Format settings, GMC : No warppoints
Format settings, Matrix : Default (H.263)
Codec ID : XVID
Codec ID/Hint : XviD
Duration : 2h 11mn
Bit rate : 2 163 Kbps
Width : 704 pixels
Height : 528 pixels
Display aspect ratio : 4:3
Frame rate : 25.000 fps
Color space : YUV
Chroma subsampling : 4:2:0
Bit depth : 8 bits
Scan type : Progressive
Compression mode : Lossy
Bits/(Pixel*Frame) : 0.233
Stream size : 1.99 GiB (91%)
Writing library : XviD 1.2.0.dev47 (UTC 2006-11-01)
Audio
ID : 1
Format : AC-3
Format/Info : Audio Coding 3
Mode extension : CM (complete main)
Format settings, Endianness : Big
Codec ID : 2000
Duration : 2h 11mn
Bit rate mode : Constant
Bit rate : 192 Kbps
Channel(s) : 2 channels
Channel positions : Front: L R
Sampling rate : 48.0 KHz
Frame rate : 31.250 fps (1536 spf)
Compression mode : Lossy
Stream size : 181 MiB (8%)
Alignment : Split accross interleaves
Interleave, duration : 40 ms (1.00 video frame)
Interleave, preload duratio : 500 ms.
—криншоты
«арегистрирован:
  • 23-»юн-18 12:48
  • —качан: 153 раза

—качать .torrent

11 KB

“ип: обычна€
—татус: проверено
–азмер: 2.17 GB  ·  magnet0C77452F4FFD542E836DC096F2CD8158DF0353D8
  • —вернуть поддиректории
  • –азвернуть
  • ѕереключить
  • ”вел./умен. окно
загружаетс€...
 
All rights reserved © 2017-2018
Loading...
Error