Викинги / Vikings / Сезон: 4 / Серии: 1-20 из 20 (Кен Джиротти / Ken Girotti) [2016, Ирландия, Канада, боевик, драма, военный, история, BDRip 720p] [Расширенная версия / Unrated] MVO (AlexFilm)

Автор
Сообщение

Serval75

Top Loader 01* 100GB

Стаж: 11 лет 2 месяца

Сообщений: 59

Serval75 · 07-Апр-18 17:23 (7 месяцев назад, ред. 10-Июл-18 10:36)

Викинги / Vikings
Год выпуска: 2016
Страна: Ирландия, Канада
Жанр: боевик, драма, военный, история
Продолжительность: ~ 00:44:00


Перевод: Профессиональный (многоголосый закадровый) AlexFilm + Оригинал (Отдельно на Яндекс)


Режиссёр: Кен Джиротти / Ken Girotti


В ролях: Трэвис Фиммел, Клайв Стэнден, Кэтрин Уинник, Джессалин Гилсиг, Джордж Благден, Густаф Скарсгард, Торбьорн Харр, Владимир Кулих, Донал Лог, Айван Кэй, Мод Хирст, Эрик Хиггинс, Герард Маккарти, Юко Ахола, Эми Де Брюн, Сэм Смит, Билл Гибсон, Кевин Мюррэй


Описание: История повествует о приключениях величайшего героя своего времени – Рагнара Лодброка. В сериале показан Рагнар со своим племенем братьев-викингов и его семьёй в процессе становления королём всех племён викингов. Рагнар – бесстрашный воин, и религиозный викинг, который объединяет все племена и распространяет среди них поклонение скандинавским богам. Согласно легенде, он – прямой потомок Одина, бога войны и воителей.м Одина, бога войны и воинов.


В релизе отсутствует реклама


Ссылка на предыдущие и альтернативные раздачи





Качество: BDRip 720p
Контейнер: MKV
Видео: H.264, 1280x720 (16:9), 23,976 fps, ~5000 kb/s kbps, ~0.247 bit/pixel
Аудио 1: AC3, 48 kHz, 6 ch, 384 kbps - AlexFilm
Аудио 2: AC3, 48 kHz, 6 ch, 640 kbps - Оригинал (Отдельно на Яндекс)
Субтитры: русские (форсированные), английские
Релиз
Релиз: Serval
Работа со звуком: Serval
Субтитры русские форсированные: Serval
P.S. Субтитры русские форсированные, переводил сам, сильно не пинайте, если есть нарекания по ним, то если кто сделает лучше, зальем на файла обменник.
Оригинальная звуковая дорожка на Яндекс
MediaInfo звуковой дорожки
General
Complete name : E:\Vikings.S04_eng\Vikings S04E01 720p BDRip-Serval_eng.ac3
Format : AC-3
Format/Info : Audio Coding 3
File size : 216 MiB
Duration : 47 min 9 s
Overall bit rate mode : Constant
Overall bit rate : 640 kb/s
Audio
Format : AC-3
Format/Info : Audio Coding 3
Format settings, Endianness : Big
Duration : 47 min 9 s
Bit rate mode : Constant
Bit rate : 640 kb/s
Channel(s) : 6 channels
Channel positions : Front: L C R, Side: L R, LFE
Sampling rate : 48.0 kHz
Frame rate : 31.250 FPS (1536 spf)
Bit depth : 16 bits
Compression mode : Lossy
Stream size : 216 MiB (100%)
Service kind : Complete Main
Vikings S04E01 720p BDRip-Serval_eng
Vikings S04E02 720p BDRip-Serval_eng
Vikings S04E03 720p BDRip-Serval_eng
Vikings S04E04 720p BDRip-Serval_eng
Vikings S04E05 720p BDRip-Serval_eng
Vikings S04E06 720p BDRip-Serval_eng
Vikings S04E07 720p BDRip-Serval_eng
Vikings S04E08 720p BDRip-Serval_eng
Vikings S04E09 720p BDRip-Serval_eng
Vikings S04E10 720p BDRip-Serval_eng
Vikings S04E11 720p BDRip-Serval_eng
Vikings S04E12 720p BDRip-Serval_eng
Vikings S04E13 720p BDRip-Serval_eng
Vikings S04E14 720p BDRip-Serval_eng
Vikings S04E15 720p BDRip-Serval_eng
Vikings S04E16 720p BDRip-Serval_eng
Vikings S04E17 720p BDRip-Serval_eng
Vikings S04E18 720p BDRip-Serval_eng
Vikings S04E19 720p BDRip-Serval_eng
Vikings S04E20 720p BDRip-Serval_eng
Список серий
01. Удачная измена (A Good Treason)
02. Убейте королеву! (Kill the Queen)
03. Милосердие (Mercy)
04. Йоль (Yol)
05. Обещанное (Promised)
06. Как могло бы быть (What Might Have Been)
07. Победы и утраты (The Profit and the Loss)
08. Сухопутный переход (Portage)
09. Смерть кругом (Death All 'Round)
10. Последний драккар (The Last Ship)
11. Изгой (The Outsider)
12. Видение (The Vision)
13. Два похода (Two Journeys)
14. В предрассветный час (In the Uncertain Hour Before the Morning)
15. И все ангелы Его (All His Angels)
16. Переход (Crossings)
17. Великая армия (The Great Army)
18. Отмщение (Revenge)
19. Накануне (On the Eve)
20. Возмездие (The Reckoning)
MediaInfo Видеоряд от -CtrlHD (1-10 серии)
General
Unique ID : 240314452630558295197702670418238873521 (0xB4CAE14A3CC2C374B57558FDF9A19FB1)
Complete name : E:\Vikings S04 720p BDRip-Serval\Vikings S04E01 720p BDRip-Serval.mkv
Format : Matroska
Format version : Version 4 / Version 2
File size : 2.43 GiB
Duration : 47 min 9 s
Overall bit rate : 7 383 kb/s
Encoded date : UTC 2017-09-18 17:50:18
Writing application : mkvmerge v15.0.0 ('Duel with the Devil') 64-bit
Writing library : libebml v1.3.5 + libmatroska v1.4.5
Video
ID : 1
Format : AVC
Format/Info : Advanced Video Codec
Format profile : High@L4.1
Format settings, CABAC : Yes
Format settings, ReFrames : 9 frames
Codec ID : V_MPEG4/ISO/AVC
Duration : 47 min 9 s
Bit rate : 6 997 kb/s
Width : 1 280 pixels
Height : 720 pixels
Display aspect ratio : 16:9
Frame rate mode : Constant
Frame rate : 23.976 (24000/1001) FPS
Color space : YUV
Chroma subsampling : 4:2:0
Bit depth : 8 bits
Scan type : Progressive
Bits/(Pixel*Frame) : 0.317
Stream size : 2.30 GiB (95%)
Writing library : x264 core 148 r2705kMod 3f5ed56
Encoding settings : cabac=1 / ref=9 / deblock=1:-3:-3 / analyse=0x3:0x133 / me=umh / subme=10 / psy=1 / fade_compensate=0.00 / psy_rd=1.05:0.00 / mixed_ref=1 / me_range=16 / chroma_me=1 / trellis=2 / 8x8dct=1 / cqm=0 / deadzone=21,11 / fast_pskip=0 / chroma_qp_offset=-2 / threads=6 / lookahead_threads=1 / sliced_threads=0 / nr=0 / decimate=0 / interlaced=0 / bluray_compat=0 / constrained_intra=0 / fgo=0 / bframes=8 / b_pyramid=2 / b_adapt=2 / b_bias=0 / direct=3 / weightb=1 / open_gop=0 / weightp=2 / keyint=250 / keyint_min=23 / scenecut=40 / intra_refresh=0 / rc_lookahead=60 / rc=crf / mbtree=0 / crf=16.0000 / qcomp=0.70 / qpmin=0 / qpmax=69 / qpstep=4 / vbv_maxrate=15000 / vbv_bufsize=15000 / crf_max=0.0 / nal_hrd=none / filler=0 / ip_ratio=1.30 / pb_ratio=1.20 / aq=1:0.80
Language : English
Default : Yes
Forced : No
Audio
ID : 2
Format : AC-3
Format/Info : Audio Coding 3
Format settings, Endianness : Big
Codec ID : A_AC3
Duration : 47 min 9 s
Bit rate mode : Constant
Bit rate : 384 kb/s
Channel(s) : 6 channels
Channel positions : Front: L C R, Side: L R, LFE
Sampling rate : 48.0 kHz
Frame rate : 31.250 FPS (1536 spf)
Bit depth : 16 bits
Compression mode : Lossy
Stream size : 130 MiB (5%)
Title : Многоголосый закадровый AlexFilm
Language : Russian
Service kind : Complete Main
Default : Yes
Forced : No
Text #1
ID : 3
Format : UTF-8
Codec ID : S_TEXT/UTF8
Codec ID/Info : UTF-8 Plain Text
Duration : 33 min 14 s
Bit rate : 3 b/s
Count of elements : 20
Stream size : 990 Bytes (0%)
Title : Надписи и пр.
Language : Russian
Default : Yes
Forced : Yes
Text #2
ID : 4
Format : UTF-8
Codec ID : S_TEXT/UTF8
Codec ID/Info : UTF-8 Plain Text
Duration : 44 min 24 s
Bit rate : 30 b/s
Count of elements : 396
Stream size : 10.1 KiB (0%)
Language : English
Default : No
Forced : No
Menu
00:00:00.000 : en:Chapter 1
00:04:01.616 : en:Chapter 2
00:07:30.450 : en:Chapter 3
00:13:29.934 : en:Chapter 4
00:15:54.245 : en:Chapter 5
00:19:10.274 : en:Chapter 6
00:24:28.258 : en:Chapter 7
00:29:16.838 : en:Chapter 8
00:36:45.578 : en:Chapter 9
00:37:42.886 : en:Chapter 10
00:40:09.198 : en:Chapter 11
00:41:43.459 : en:Chapter 12
MediaInfo Видеоряд от -REWARD (11-20 серии)
General
Unique ID : 326969292316703032599444806656625711003 (0xF5FBFEBEA9B0613B5DFE0E8B27E3979B)
Complete name : E:\Vikings S04 720p BDRip-Serval\Vikings S04E11 720p BDRip.-Serval.mkv
Format : Matroska
Format version : Version 4 / Version 2
File size : 1.83 GiB
Duration : 44 min 52 s
Overall bit rate : 5 836 kb/s
Encoded date : UTC 2018-03-28 14:32:03
Writing application : mkvmerge v19.0.0 ('Brave Captain') 64-bit
Writing library : libebml v1.3.5 + libmatroska v1.4.8
Video
ID : 1
Format : AVC
Format/Info : Advanced Video Codec
Format profile : High@L4.1
Format settings, CABAC : Yes
Format settings, ReFrames : 5 frames
Codec ID : V_MPEG4/ISO/AVC
Duration : 44 min 52 s
Bit rate : 5 452 kb/s
Width : 1 280 pixels
Height : 720 pixels
Display aspect ratio : 16:9
Frame rate mode : Constant
Frame rate : 23.976 (24000/1001) FPS
Color space : YUV
Chroma subsampling : 4:2:0
Bit depth : 8 bits
Scan type : Progressive
Bits/(Pixel*Frame) : 0.247
Stream size : 1.71 GiB (93%)
Writing library : x264 core 148 r2744 b97ae06
Encoding settings : cabac=1 / ref=5 / deblock=1:-3:-3 / analyse=0x3:0x113 / me=umh / subme=8 / psy=1 / psy_rd=1.00:0.00 / mixed_ref=1 / me_range=24 / chroma_me=1 / trellis=1 / 8x8dct=1 / cqm=0 / deadzone=21,11 / fast_pskip=1 / chroma_qp_offset=-2 / threads=22 / lookahead_threads=3 / sliced_threads=0 / nr=0 / decimate=1 / interlaced=0 / bluray_compat=0 / constrained_intra=0 / bframes=3 / b_pyramid=2 / b_adapt=2 / b_bias=0 / direct=3 / weightb=1 / open_gop=0 / weightp=2 / keyint=240 / keyint_min=24 / scenecut=40 / intra_refresh=0 / rc_lookahead=50 / rc=2pass / mbtree=1 / bitrate=5452 / ratetol=1.0 / qcomp=0.60 / qpmin=0 / qpmax=69 / qpstep=4 / cplxblur=20.0 / qblur=0.5 / ip_ratio=1.40 / aq=3:0.80
Language : English
Default : Yes
Forced : No
Audio
ID : 2
Format : AC-3
Format/Info : Audio Coding 3
Format settings, Endianness : Big
Codec ID : A_AC3
Duration : 44 min 52 s
Bit rate mode : Constant
Bit rate : 384 kb/s
Channel(s) : 6 channels
Channel positions : Front: L C R, Side: L R, LFE
Sampling rate : 48.0 kHz
Frame rate : 31.250 FPS (1536 spf)
Bit depth : 16 bits
Compression mode : Lossy
Stream size : 123 MiB (7%)
Title : Многоголосый закадровый, AlexFilm
Language : Russian
Service kind : Complete Main
Default : Yes
Forced : No
Text
ID : 3
Format : UTF-8
Codec ID : S_TEXT/UTF8
Codec ID/Info : UTF-8 Plain Text
Duration : 42 min 31 s
Bit rate : 29 b/s
Count of elements : 348
Stream size : 9.20 KiB (0%)
Language : English
Default : No
Forced : No
Menu
00:00:00.000 : en:00:00:00.000
00:04:02.909 : en:00:04:02.909
00:10:50.108 : en:00:10:50.108
00:13:49.912 : en:00:13:49.912
00:18:12.008 : en:00:18:12.008
00:25:38.162 : en:00:25:38.162
00:26:04.229 : en:00:26:04.229
00:31:19.878 : en:00:31:19.878
00:34:18.014 : en:00:34:18.014
00:38:33.686 : en:00:38:33.686
00:40:51.866 : en:00:40:51.866
00:43:51.754 : en:00:43:51.754
Скриншоты
Download
Для скачивания .torrent файлов необходима регистрация
Сайт не распространяет и не хранит электронные версии произведений, а лишь предоставляет доступ к создаваемому пользователями каталогу ссылок на торрент-файлы, которые содержат только списки хеш-сумм

bot · 07-Апр-18 18:30 (спустя 1 час 6 мин.)

Тема была перенесена из форума Зарубежные сериалы (HD Video) в форум Викинги / Vikings (HD Video)
karta78
 

~Zer@tuL~

Стаж: 11 лет 5 месяцев

Сообщений: 201

~Zer@tuL~ · 09-Апр-18 19:59 (спустя 2 дня 2 часа)

А можно по-подробнее, в чем именно заключается Расширенная версия?

Serval75

Top Loader 01* 100GB

Стаж: 11 лет 2 месяца

Сообщений: 59

Serval75 · 11-Апр-18 11:41 (спустя 1 день 15 часов, ред. 11-Апр-18 11:41)

~Zer@tuL~ писал(а):
75145962А можно по-подробнее, в чем именно заключается Расширенная версия?
Не буду описывать в чем заключается Расширенная версия, ниже можете глянуть время каждой серии. Эта версия сериала единственная, которую удалось найти на BD.
Название серий и в продолжительность каждой серии
01. Удачная измена / A Good Treason — 00:47:09
02. Убейте королеву! / Kill the Queen — 00:43:37
03. Милосердие / Mercy — 00:48:39
04. Йоль / Yol — 00:45:16
05. Обещанное / Promised — 00:45:23
06. Как могло бы быть / What Might Have Been — 00:45:39
07. Победы и утраты / The Profit and the Loss — 00:45:24
08. Сухопутный переход / Portage —00:45:28
09. Смерть кругом / Death All 'Round — 00:44:44
10. Последний драккар / The Last Ship — 00:43:46
11. Изгой / The Outsider — 00:44:52
12. Видение / The Vision — 00:44:20
13. Два похода / Two Journeys — 00:45:59
14. В предрассветный час / In the Uncertain Hour Before the Morning — 00:45:04
15. И все ангелы Его / All His Angels / 00:47:06
16. Переход / Crossings — 00:43:25
17. Великая армия / The Great Army — 00:44:11
18. Отмщение / Revenge — 00:52:08
19. Накануне / On the Eve — 00:44:19
20. Возмездие / The Reckoning — 00:46:04



В теме добавлены звуковые оригинальные дорожки, отдельными файлами, залиты на Яндекс.

Axl89

Стаж: 9 лет 3 месяца

Сообщений: 540

Axl89 · 12-Апр-18 17:46 (спустя 1 день 6 часов)

Первый сезон смотрел нормально. Второй терпимо. А дальше начал дико перематывать. Куда ещё растягивать то)
Навскидку, где-то читал или слышал, что есть версия с повышенным градусом обнажёнки, может как раз она.

Katy1609

Стаж: 8 лет 1 месяц

Сообщений: 4


Katy1609 · 12-Апр-18 18:44 (спустя 57 мин.)

Где взять расширенную версию 3-го сезона?

cccccc6

Стаж: 8 лет 5 месяцев

Сообщений: 5


cccccc6 · 28-Июн-18 19:59 (спустя 2 месяца 16 дней)

ссылка для первой английской дорожки пустая

Serval75

Top Loader 01* 100GB

Стаж: 11 лет 2 месяца

Сообщений: 59

Serval75 · 10-Июл-18 10:37 (спустя 11 дней)

cccccc6 писал(а):
75574420ссылка для первой английской дорожки пустая
Исправлено
 
All rights reserved © 2017-2018
Loading...
Error