»гроки / ‘утболисты / Ballers / —езон: 4 / —ерии: 1-9 из 9 (ѕитер Ѕерг) [2018, —Ўј, драма, комеди€, WEB-DLRip] DVO (Gears Media) + Original

—татистика раздачи
–азмер:  3.29 GB   |   «арегистрирован:  1 мес€ц 19 дней   |   .torrent скачан:  177 раз
—иды:  1
јвтор
—ообщение

T_A_R

—таж: 6 лет 8 мес€цев

—ообщений: 814

flag

T_A_R · 17-јвг-18 07:56 (3 мес€ца 26 дней назад, ред. 24-ќкт-18 21:03)

 

»гроки / ‘утболисты / Ballers
√од выпуска: 2018
—трана: —Ўј
∆анр: драма, комеди€
ѕродолжительность: 00:30:00
ѕеревод: ѕрофессиональный (двухголосый закадровый) [Gears Media]
–ежиссЄр: ѕитер Ѕерг
¬ рол€х: ƒуэйн ƒжонсон, ƒжасмин —аймон, ƒонован  артер, –об  ордри, “рой √эрити, ќмар Ѕенсон ћиллер, ƒжон ƒэвид ¬ашингтон, јнабель јкоста, ƒуле ’илл, јриэль  еббел
ќписание: Ќовый совместный проект ƒуэйна Ђ—калыї ƒжонсона, ћарка ”олберга и режиссера Ђ’энкокаї ѕитера Ѕерга - комедийна€ драма Ќ¬ќ о жизни профессиональных игроков в американский футбол. ќни зарабатывают миллионы, на них мол€тс€ фанаты, их показывают в новост€х. Ќо помимо многочасовых тренировок, п€тничных игр и вспышек фотокамер у них есть друзь€, семьи и, конечно, проблемы Ц почти такие же, как у обычных людей. — девушкой помиритьс€ - это, знаете ли, не тачдаун оформить.
—сылка на предыдущие и альтернативные раздачи: http://GOSTRACKER.XYZ/tracker.php?g=foreign_serials&nm=Ballers
—эмпл: http://multi-up.com/1206476
 ачество: WEB-DLRip
‘ормат: AVI
¬идео: XviD, 720x400 at 23.976 fps, ~1500 kbps avg
јудио1: Russian, MP3, 48 kHz, 2 ch, 128 kbps
јудио2: English, MP3, 48 kHz, 2 ch, 128 kbps
—убтитры: нет
–еклама: аудио (два раза, в начале и конце, по 12 сек.)
MediaInfo
Format : AVI
Format/Info : Audio Video Interleave
File size : 413 MiB
Duration : 32 min 45 s
Overall bit rate : 1 764 kb/s
Writing application : Lavf57.29.101
Video
ID : 0
Format : xvid
Codec ID : xvid
Duration : 32 min 45 s
Bit rate : 1 487 kb/s
Width : 720 pixels
Height : 400 pixels
Display aspect ratio : 16:9
Frame rate : 23.976 (24000/1001) FPS
Scan type : Progressive
Bits/(Pixel*Frame) : 0.215
Stream size : 348 MiB (84%)
Audio #1
ID : 1
Format : MPEG Audio
Format version : Version 1
Format profile : Layer 3
Format settings : Joint stereo / MS Stereo
Codec ID : 55
Codec ID/Hint : MP3
Duration : 32 min 45 s
Bit rate mode : Constant
Bit rate : 128 kb/s
Channel(s) : 2 channels
Sampling rate : 48.0 kHz
Compression mode : Lossy
Stream size : 30.0 MiB (7%)
Alignment : Aligned on interleaves
Interleave, duration : 24 ms (0.58 video frame)
Interleave, preload duratio : 24 ms
Title : Gears Media
Writing library : LAME3.99.5
Audio #2
ID : 2
Format : MPEG Audio
Format version : Version 1
Format profile : Layer 3
Format settings : Joint stereo / MS Stereo
Codec ID : 55
Codec ID/Hint : MP3
Duration : 32 min 45 s
Bit rate mode : Constant
Bit rate : 128 kb/s
Channel(s) : 2 channels
Sampling rate : 48.0 kHz
Compression mode : Lossy
Stream size : 30.0 MiB (7%)
Alignment : Aligned on interleaves
Interleave, duration : 24 ms (0.58 video frame)
Interleave, preload duratio : 24 ms
Writing library : LAME3.99.
—криншоты
¬нимание! –аздача ведЄтс€ путЄм добавлени€ новых серий
¬нимание! –аздача ведЄтс€ путЄм добавлени€ новых серий; при каждом добавлении создаЄтс€ новый торрент. „тобы начать докачку новой серии, пользовател€м необходимо сделать следующее:
(1) остановить скачивание,
(2) удалить старый торрент у себ€ из клиента (старые серии удал€ть не надо),
(3) скачать новый торрент и запустить его у себ€ в клиенте вместо старого, при этом указать клиенту путь в старую папку куда и должно происходить скачивание новых серий.
¬аш клиент при этом должен произвести хеширование (проверку) старой папки (если не производит сам - помогите ему сделать это), и будет докачивать только те серии которых у вас ещЄ нет. —тарые серии при этом не удал€ютс€, а продолжают раздаватьс€!
Eсли вы уже удалили старые серии, то предотвратить повторную закачку старых серий можно, отжав галочку в соответствующих местах при запуске нового торрента. ѕо возможности, желательно не удал€ть старые серии как можно дольше чтобы релизЄр не столько продолжал раздавать старые серии, а смог сконцентрироватьс€ на новых.
«арегистрирован:
  • 24-ќкт-18 21:03
  • —качан: 177 раз

—качать .torrent

17 KB

“ип: обычна€
—татус: # сомнительно
–азмер: 3.29 GB  ·  magnet85B8E6978B1C6F79E46DD0E65FE781C09A726034
  • —вернуть поддиректории
  • –азвернуть
  • ѕереключить
  • ”вел./умен. окно
загружаетс€...

Celta88

Moderator

—таж: 9 лет 7 мес€цев

—ообщений: 4807

flag

Celta88 · 17-јвг-18 10:49 (спуст€ 2 часа 52 мин.)


÷итата:
–еклама: аудио (два раза, в начале и конце, по 12 сек.)
÷итата:
Writing application : Lavf57.29.101
+ нет настроек кодировани€ + чЄрные полосы справа и слева
 ритерии присвоени€ статусов # (сомнительно) и “ (временна€).
# сомнительно
ѕравила раздела «арубежные сериалы
ћетоды обхода блокировки
„емпионат ћира по футболу 2018

≈сли в моих раздачах отсутствуют сиды - напишите об этом в комментари€х!

bot · 17-јвг-18 10:49 (спуст€ 8 сек.)

“ема была перенесена из форума «арубежные сериалы в форум Ќовинки и сериалы в стадии показа
Celta88
 

bot · 24-ќкт-18 21:06 (спуст€ 2 мес€ца 7 дней)

“ема была перенесена из форума Ќовинки и сериалы в стадии показа в форум —ериалы —Ўј и  анады
Celta88
 
 
All rights reserved © 2017-2018
Loading...
Error