Юная / Younger / Сезон: 5 / Серии: 1-12 из 12 (Питер Лоэр, Стивен К. Цутида, Тодд Бирман) [2018, США, Комедия, WEBRip] MVO (Jaskier) + Original

Статистика раздачи
Размер:  3.69 GB   |   Зарегистрирован:  2 месяца 21 день   |   .torrent скачан:  727 раз
Сиды:  6   Личи:  6
Автор
Сообщение

sandora1

Стаж: 4 года 11 месяцев

Сообщений: 310

flag

sandora1 · 08-Июн-18 18:52 (5 месяцев 13 дней назад, ред. 31-Авг-18 19:50)

 

Юная / Younger
Год выпуска: 2018
Страна: США
Жанр: Комедия
Продолжительность: 00:25:00
Перевод: Профессиональный (многоголосый закадровый) | Jaskier

Режиссёр: Питер Лоэр, Стивен К. Цутида, Тодд Бирман
В ролях: Саттон Фостер, Деби Мейзар, Мириам Шор, Нико Торторелла, Хилари Дафф, Молли Бернард, Дэн Амбойер, Тесса Альбертсон, Торбьорн Харр, Джонатан Габрус
Описание: В сорок лет жизнь Лайзы кардинально меняется. Неожиданный развод с мужем вынуждает женщину отправиться на поиски работы, ведь теперь ей надо содержать ребенка самостоятельно. Но тут Лиза понимает, что для женщины ее возраста, да еще и с опытом домохозяйки, вакансий в большом городе совершенно нет. Однако одна встреча в баре все меняет. Незнакомый парень начинает уверять героиню, что она совершенно не выглядит на свой возраст, и у Лизы рождается гениальная идея. Вместе с подругой Мэгги женщина слегка меняет свой имидж, обновляет гардероб, отправляется на интересное собеседование, и уверенно заявляет, что ей 26 лет. Ложь срабатывает, и Лиза получает место ассистента в офисе энергичной дамы по имени Диана. Ей даже удается подружиться с двадцатилетней коллегой! Теперь для Лизы самое главное сохранить от всех свой маленьких секрет.

Качество: WEBRip
Формат: AVI
Видео: XviD, ~1500 kbps, 720x400 (16:9), 23.976 fps
Аудио 1: MP3, 48,0 КГц, 2 ch, 128 kbps - Rus
Аудио 2: MP3, 48,0 КГц, 2 ch, 128 kbps - Eng
Реклама: Присутствует звуковая (два раза в начале и конце по 10 сек.)
Ссылка на предыдущие и альтернативные раздачи
Релиз
Переведено и озвучено: студией Jaskier
MediaInfo
Код:
Общее
Полное имя                               : F:\Jaskier\Younger Season 5 (WEBRip l 400p l Jaskier)\Younger.S05E01.WEBRip.Jaskier.avi
Формат                                   : AVI
Формат/Информация                        : Audio Video Interleave
Размер файла                             : 294 Мбайт
Продолжительность                        : 23 м. 12 с.
Общий поток                              : 1769 Кбит/сек
Программа кодирования                    : VirtualDubMod 1.5.10.3 | www.virtualdub-fr.org || (build 2550/release)
Библиотека кодирования                   : VirtualDubMod build 2550/release
Видео
Идентификатор                            : 0
Формат                                   : MPEG-4 Visual
Профиль формата                          : Advanced Simple@L5
Настройки формата                        : BVOP2
Параметр BVOP формата                    : 2
Параметр QPel формата                    : Нет
Параметр GMC формата                     : Без точки перехода
Параметр матрицы формата                 : Default (MPEG)
Идентификатор кодека                     : XVID
Идентификатор кодека/Подсказка           : XviD
Продолжительность                        : 23 м. 12 с.
Битрейт                                  : 1499 Кбит/сек
Ширина                                   : 720 пикселей
Высота                                   : 400 пикселей
Соотношение сторон                       : 16:9
Частота кадров                           : 23,976 (24000/1001) кадра/сек
Цветовое пространство                    : YUV
Субдискретизация насыщенности            : 4:2:0
Битовая глубина                          : 8 бит
Тип развёртки                            : Прогрессивная
Метод сжатия                             : С потерями
Бит/(Пиксели*Кадры)                      : 0.217
Размер потока                            : 249 Мбайт (85%)
Библиотека кодирования                   : XviD 1.2.1 (UTC 2008-12-04)
Аудио #1
Идентификатор                            : 1
Формат                                   : MPEG Audio
Версия формата                           : Version 1
Профиль формата                          : Layer 3
Настройки формата                        : Joint stereo / MS Stereo
Идентификатор кодека                     : 55
Идентификатор кодека/Подсказка           : MP3
Продолжительность                        : 23 м. 12 с.
Вид битрейта                             : Постоянный
Битрейт                                  : 128 Кбит/сек
Каналы                                   : 2 канала
Частота                                  : 48,0 КГц
Частота кадров                           : 41,667 кадра/сек (1152 SPF)
Метод сжатия                             : С потерями
Размер потока                            : 21,2 Мбайт (7%)
Выравнивание                             : Соединение по промежуткам
Продолжительность промежутка             : 42  мс. (1,00 видеокадр)
Время предзагрузки промежутка            : 504  мс.
Библиотека кодирования                   : LAME3.100
Настройки программы                      : -m j -V 4 -q 3 -lowpass 17 -b 128
Аудио #2
Идентификатор                            : 2
Формат                                   : MPEG Audio
Версия формата                           : Version 1
Профиль формата                          : Layer 3
Настройки формата                        : Joint stereo / MS Stereo
Идентификатор кодека                     : 55
Идентификатор кодека/Подсказка           : MP3
Продолжительность                        : 23 м. 12 с.
Вид битрейта                             : Постоянный
Битрейт                                  : 128 Кбит/сек
Каналы                                   : 2 канала
Частота                                  : 48,0 КГц
Частота кадров                           : 41,667 кадра/сек (1152 SPF)
Метод сжатия                             : С потерями
Размер потока                            : 21,2 Мбайт (7%)
Выравнивание                             : Соединение по промежуткам
Продолжительность промежутка             : 42  мс. (1,00 видеокадр)
Время предзагрузки промежутка            : 504  мс.
Библиотека кодирования                   : LAME3.100
Настройки программы                      : -m j -V 4 -q 3 -lowpass 17 -b 128
Зарегистрирован:
  • 31-Авг-18 19:50
  • Скачан: 727 раз

Скачать .torrent

20 KB

Тип: обычная
Статус: T временная
Размер: 3.69 GB  ·  magnet35A331FC61CE1DF590CB505E82476557D71A7C8F
  • Свернуть поддиректории
  • Развернуть
  • Переключить
  • Увел./умен. окно
загружается...

Wentworth_Miller

Помощник модератора

Стаж: 9 лет 8 месяцев

Сообщений: 5550

flag

Wentworth_Miller · 08-Июн-18 19:04 (спустя 11 мин.)

реклама
T временная
Исправили раздачу - напишите ЛС, указав ссылку на релиз.

bot · 08-Июн-18 19:05 (спустя 1 мин.)

Тема была перенесена из форума Зарубежные сериалы в форум Новинки и сериалы в стадии показа
Wentworth_Miller
 

born5555

Стаж: 8 лет 6 месяцев

Сообщений: 159

flag

born5555 · 14-Июл-18 17:48 (спустя 1 месяц 5 дней)

Спасибо! Надеюсь, что в этом сезоне ГГ определится со своими мужчинами)
Не обязательно понимать этот мир, нужно лишь найти себя в нем — Альберт Эйнштейн

romboos

Стаж: 8 лет 8 месяцев

Сообщений: 46

flag

romboos · 04-Авг-18 01:57 (спустя 20 дней)

Спасибо! Недавно узнал что сериал продлили на шестой сезон.

paul_atrydes

Стаж: 8 лет 4 месяца

Сообщений: 77

flag

paul_atrydes · 17-Авг-18 17:48 (спустя 13 дней)

Ну и где десятая серия?

bot · 31-Авг-18 20:04 (спустя 14 дней)

Тема была перенесена из форума Новинки и сериалы в стадии показа в форум Сериалы США и Канады
Wentworth_Miller
 

bulvarbulvar

Стаж: 7 лет 11 месяцев

Сообщений: 15

flag

bulvarbulvar · 03-Сен-18 08:17 (спустя 16 дней)

ура!!1
 
All rights reserved © 2017-2018
Loading...
Error