Побитые псы / Under the Dog [OVA] [1 из 1] [Без хардсаба] [RUS(ext), JAP, SUB] [2016, приключения, фантастика, BDRemux] [1080p]

Статистика раздачи
Размер:  10.8 GB   |   Зарегистрирован:  4 месяца 16 дней   |   .torrent скачан:  205 раз
Сиды:  1
Автор
Сообщение

black7792

Top Bonus 01* 300GB

Стаж: 8 лет 5 месяцев

Сообщений: 465

flag

black7792 · 31-Июл-18 21:40 (4 месяца 16 дней назад, ред. 01-Авг-18 10:44)

 




Страна: Япония
Год выпуска: 2016
Жанр: приключения, фантастика
Тип: OVA
Продолжительность: 1 эп., 39 мин.
Режиссер: Андо Масахиро
Студия: Cinema Citrus, Orange
Описание:2025 год, Нео-Токио. Прошло 5 лет после разрушительного террористического акта на Олимпийских играх в Токио. В связи с трагедией, ООН формирует тайное элитное подразделение совершенно нового формата, задачей которого является поиск и устранение лиц, ответственных за нападение.
Антея Калленберг — член этой секретной группы. Оттачивая свои боевые навыки, она стала непревзойденным убийцей. Однако чтобы быть лучшей, девушка должна осознать, кто же она на самом деле.
@Tehanuᅠ

Качество: BDRemux
Тип релиза: Без хардсаба
Формат видео: MKV
Видео: AVC, 1920x1080 (8 бит), ~37.1 Mbps, 23.976 fps
Аудио:
1) DTS, ~1509 Kbps, 48.0 KHz, 6 ch, японский (в составе контейнера)
2) FLAC, ~587 Kbps, 48.0 KHz, 2 ch, японский (в составе контейнера) (с комментариями)
3) AAC, 192 kbps, 48.0 KHz, 2 ch, русский (внешним файлом) - [AniFilm]
4) AAC, 192 kbps, 48.0 KHz, 2 ch, русский (внешним файлом) - [AniLibria] + субтитры на английскую речь (внешние)
5) AC3, 192 kbps, 48.0 KHz, 2 ch, русский (внешним файлом) - [AniMedia]
Субтитры:
1) PGS, в составе контейнера, английский; с Blu-Ray издания
2) PGS, в составе контейнера, немецкий; с Blu-Ray издания
3) PGS, в составе контейнера, английский; с Blu-Ray издания (комментарии | SDH)
4) ASS, внешние, русский; перевод: tengri
5) ASS, внешние, русский; перевод: [Timecraft] - AleX_MytH
6) ASS, внешние, русский; перевод: [YakuSub Studio] - Helge, Red-blue_heart, SeshaRim
7) ASS, внешние, русский; Надписи - tengri
Озвучка
  1. двухголосая - (муж./жен.) Izzi & Баяна [AniFilm] - sample
  2. многоголосая - Anzen, Amikiri, Rexus, Nuts, Cleo-chan [AniLibria] - sample
  3. двухголосая - (муж./жен.) Komuro & ReviKim [AniMedia] - sample
Подробные тех. данные
Общее
Уникальный идентификатор : 118927869076139115006523927081542474309 (0x5978ACA7495B07D96341A2DD18C3DA45)
Полное имя : Under the Dog 2016 [BDRemux].mkv
Формат : Matroska
Версия формата : Version 4 / Version 2
Размер файла : 10,6 Гбайт
Продолжительность : 38 м. 19 с.
Режим общего битрейта : Переменный
Общий поток : 39,7 Мбит/сек
Название фильма : Under.the.Dog.2016.OVA.USA.BluRay.Remux.1080p.AVC.DTS-HD.MA.5.1-NCmt
Дата кодирования : UTC 2017-04-08 04:38:18
Программа кодирования : mkvmerge v9.8.0 ('Kuglblids') 64bit
Библиотека кодирования : libebml v1.3.4 + libmatroska v1.4.5
Видео
Идентификатор : 1
Формат : AVC
Формат/Информация : Advanced Video Codec
Профиль формата : High@L4.1
Настройки формата : CABAC / 4 Ref Frames
Параметр CABAC формата : Да
Параметр RefFrames формата : 4 кадра
Идентификатор кодека : V_MPEG4/ISO/AVC
Продолжительность : 38 м. 19 с.
Вид битрейта : Постоянный
Битрейт : 37,1 Мбит/сек
Номинальный битрейт : 39,0 Мбит/сек
Ширина : 1920 пикселей
Высота : 1080 пикселей
Соотношение сторон : 16:9
Режим частоты кадров : Постоянный
Частота кадров : 23,976 (24000/1001) кадра/сек
Цветовое пространство : YUV
Субдискретизация насыщенности : 4:2:0
Битовая глубина : 8 бит
Тип развёртки : Прогрессивная
Бит/(Пиксели*Кадры) : 0.745
Размер потока : 9,92 Гбайт (93%)
Заголовок : MPEG-4 AVC Video / 39000 kbps / 1080p / 23.976 fps / 16:9 / High Profile 4.1
Default : Да
Forced : Нет
Цветовой диапазон : Limited
Основные цвета : BT.709
Характеристики трансфера : BT.709
Коэффициенты матрицы : BT.709
Аудио #1
Идентификатор : 2
Формат : DTS
Формат/Информация : Digital Theater Systems
Профиль формата : MA / Core
Идентификатор кодека : A_DTS
Продолжительность : 38 м. 19 с.
Вид битрейта : Переменный / Постоянный
Битрейт : 2048 Кбит/сек / 1509 Кбит/сек
Каналы : 6 каналов
Расположение каналов : Front: L C R, Side: L R, LFE
Частота : 48,0 КГц
Частота кадров : 93,750 кадра/сек (512 SPF)
Битовая глубина : 16 бит
Метод сжатия : Без потерь / Lossy
Размер потока : 568 Мбайт (5%)
Заголовок : DTS-HD Master Audio / 5.1 / 48 kHz / 2070 kbps / 16-bit
Язык : Japanese
Default : Да
Forced : Нет
Аудио #2
Идентификатор : 3
Формат : FLAC
Формат/Информация : Free Lossless Audio Codec
Идентификатор кодека : A_FLAC
Продолжительность : 38 м. 19 с.
Вид битрейта : Переменный
Битрейт : 587 Кбит/сек
Каналы : 2 канала
Расположение каналов : Front: L R
Частота : 48,0 КГц
Частота кадров : 11,719 кадров/сек (4096 SPF)
Битовая глубина : 16 бит
Размер потока : 161 Мбайт (1%)
Заголовок : Commentary with Director Masahiro Ando, Series Composer Koyanagi Keigo, Character Designer Satou Masahiro and Main Animator Itou Hidetsugu / FLAC Audio / 2.0 / 48 kHz / 587 kbps / 16-bit
Библиотека кодирования : libFLAC 1.2.1 (UTC 2007-09-17)
Язык : Japanese
Default : Нет
Forced : Нет
Текст #1
Идентификатор : 4
Формат : PGS
Режим смешивания : zlib
Идентификатор кодека : S_HDMV/PGS
Идентификатор кодека/Информация : Picture based subtitle format used on BDs/HD-DVDs
Продолжительность : 29 м. 49 с.
Битрейт : 7460 бит/сек
ElementCount : 595
Размер потока : 1,59 Мбайт (0%)
Язык : English
Default : Да
Forced : Нет
Текст #2
Идентификатор : 5
Формат : PGS
Режим смешивания : zlib
Идентификатор кодека : S_HDMV/PGS
Идентификатор кодека/Информация : Picture based subtitle format used on BDs/HD-DVDs
Продолжительность : 29 м. 55 с.
Битрейт : 10,5 Кбит/сек
ElementCount : 756
Размер потока : 2,24 Мбайт (0%)
Заголовок : SDH
Язык : German
Default : Нет
Forced : Нет
Текст #3
Идентификатор : 6
Формат : PGS
Режим смешивания : zlib
Идентификатор кодека : S_HDMV/PGS
Идентификатор кодека/Информация : Picture based subtitle format used on BDs/HD-DVDs
Продолжительность : 30 м. 3 с.
Битрейт : 18,1 Кбит/сек
ElementCount : 993
Размер потока : 3,88 Мбайт (0%)
Заголовок : Commentary / SDH
Язык : English
Default : Нет
Forced : Нет
Меню
00:00:00.000 : en:Prologue
00:02:54.341 : en:A-part
00:12:49.268 : en:B-part
00:27:45.372 : en:Epilogue
00:30:03.802 : en:Backer Credits
Отличия
http://GOSTRACKER.XYZ/viewtopic.php?t=5412792 (BDRemux, наличие альтернативной русскоязычной дорожки);
http://GOSTRACKER.XYZ/viewtopic.php?t=5365402 (BDRemux, наличие русскоязычной дорожки);
http://GOSTRACKER.XYZ/viewtopic.php?t=5365763 (BDRemux, наличие альтернативной русскоязычной дорожки);
http://GOSTRACKER.XYZ/viewtopic.php?t=5266856 (BDRemux, наличие альтернативной русскоязычной дорожки).
Скриншоты
Зарегистрирован:
  • 31-Июл-18 21:40
  • Скачан: 205 раз

Скачать .torrent

55 KB

Тип: обычная
Статус: T временная
Размер: 10.8 GB  ·  magnet9C198B2DD9075106E6839CAD1C720224140B0C5F
  • Свернуть поддиректории
  • Развернуть
  • Переключить
  • Увел./умен. окно
загружается...

black7792

Top Bonus 01* 300GB

Стаж: 8 лет 5 месяцев

Сообщений: 465

flag

black7792 · 01-Авг-18 10:51 (спустя 13 часов)

Как выйдет из QC добавлю:
  1. озвучка [SHIZA] - NIKITOS, Pandora, Viki
  2. озвучка [Anything Group] - Sad_Kit & Milirina
P.S. Озвучка [AniDUB] - Ancord & Jade, увы, запрет, правила, но рисуйте в ЛС.

Net_torrent_user

Стаж: 7 лет 3 месяца

Сообщений: 5


Net_torrent_user · 18-Авг-18 10:33 (спустя 16 дней)

Братья и сёстры по разуму, я конечно извиняюсь, но не докачалось 3,9 МЕГАБАЙТА

И судя по постоянно висящим нескольких пирах, я не один так "счастливчик"..
Шёл второй день..
 
All rights reserved © 2017-2018
Loading...
Error