Большая рыба и Бегония / Da Yu Hai Tang / Big Fish & Begonia / По ту сторону океана [Movie] [Без хардсаба] [RUS(int), CHI+SUB] [2016, приключения, фэнтези, драма, BDRip] [HWP]

Статистика раздачи
Размер:  1.98 GB   |   Зарегистрирован:  2 месяца 12 дней   |   .torrent скачан:  974 раза
Сиды:  12
Автор
Сообщение

Страник 2.0

Стаж: 7 лет 10 месяцев

Сообщений: 1070

flag

Страник 2.0 · 06-Сен-18 00:22 (2 месяца 12 дней назад, ред. 14-Сен-18 16:28)

 

Большая рыба и Бегония / Da Yu Hai Tang / Big Fish & Begonia / По ту сторону океана / 大鱼海棠


Страна: Китай
Год выпуска: 2016 г.
Жанр: Приключения, фэнтези, драма
Тип: Movie
Продолжительность: 106 мин.
Режиссер: Чжан Чунь, Лян Сюань
Студия: B&T, Enlight Pictures Limited


Перевод:
Cубтитры: YakuSub Studio
Перевод: SeshaRim
Тайм-код: Helge
Редактура: Aero
Cубтитры: Bazaar Zetsubou
Перевод: lukorepka, Erominal, Бульбазавр
Редактура: Alex Drake, Jane Cooper
Озвучка:
- многоголосая закадровая: Esther, Влад Дуров, BalFor, Давид Петросян, Торгиль, JAM, Demetra, Cuba77 [AniDub]
По переводу: Cuba77
Тайминг и работа со звуком: Павел П.


Описание : Веснушка (Чунь), во время семидневного путешествия в мир людей, попадает в беду, но ценой своей жизни ее спасает человеческий юноша. Вернувшись в свой мир, девушка ищет способ вернуть человека к жизни и в этом ей помогает хранитель чистых душ - Линг Ро. Он отдает душу юноши в облике дельфинчика в обмен на половину её жизни. Теперь Веснушке нужно сделать всё, чтобы Великан (Кун) вырос и смог вернуться в свой мир, ведь от этого зависит и её жизнь. Но пока она и её друг Дзяо, влюблённый в неё, присматривают за душой, на мир духов и богов надвигается большая беда...


world-art | AniDB | MyAnimeList | imdb | KinoPoisk | Офиц. сайт
Big Fish & Begonia - Movie Soundtrack Album


Автор рипа : Страник 2.0
Файл
Качество: BDRip (исходник: BDRemux, спасибо black7792)
Тип релиза: Без хардсаба
Формат видео: AVI
Наличие линковки: Нет
Видео: XviD, 720x304 (1.35:1), 8bit, 2106 Кбит/с, 24.000 fps
Аудио 1: Русский, AC3, 192 Кбит/с, 48.0 Hz, 2 ch (в составе контейнера)
Аудио 2: Китайский, AC3, 384 Кбит/с, 48.0 Hz, 6 ch (в составе контейнера)
Субтитры (srt): Русские (внешним файлом) - Надписи+полные
Субтитры (srt): Английские [BD] (внешним файлом)





Скриншоты
MediaInfo
General
Complete name : E:/Torrent_2/Big Fish & Begonia (2016, XviD BDRip, RUS CHI+SUB) [Stranik 2.0]/Big Fish & Begonia (2016, XviD BDRip, RUS CHI+SUB) [Stranik 2.0] [AniDUB].avi
Format : AVI
Format/Info : Audio Video Interleave
File size : 1.98 GiB
Duration : 1h 45mn
Overall bit rate : 2 696 Kbps
Writing application : VirtualDubMod 1.5.10.3 (build 2550/release)
Writing library : VirtualDubMod build 2550/release
Video #0
ID : 0
Format : MPEG-4 Visual
Format profile : Advanced Simple@L5
Format settings, BVOP : 2
Format settings, QPel : No
Format settings, GMC : No warppoints
Format settings, Matrix : Custom
Codec ID : XVID
Codec ID/Hint : XviD
Duration : 1h 45mn
Bit rate : 2 106 Kbps
Width : 720 pixels
Height : 304 pixels
Display aspect ratio : 2.35:1
Frame rate : 24.000 fps
Color space : YUV
Chroma subsampling : 4:2:0
Bit depth : 8 bits
Scan type : Progressive
Compression mode : Lossy
Bits/(Pixel*Frame) : 0.401
Stream size : 1.55 GiB (78%)
Writing library : XviD 67
Audio #1
ID : 1
Format : AC-3
Format/Info : Audio Coding 3
Mode extension : CM (complete main)
Format settings, Endianness : Big
Codec ID : 2000
Duration : 1h 45mn
Bit rate mode : Constant
Bit rate : 192 Kbps
Channel(s) : 2 channels
Channel positions : Front: L R
Sampling rate : 48.0 KHz
Bit depth : 16 bits
Compression mode : Lossy
Stream size : 145 MiB (7%)
Alignment : Split accross interleaves
Interleave, duration : 42 ms (1.00 video frame)
Interleave, preload duration : 500 ms
Audio #2
ID : 2
Format : AC-3
Format/Info : Audio Coding 3
Mode extension : CM (complete main)
Format settings, Endianness : Big
Codec ID : 2000
Duration : 1h 45mn
Bit rate mode : Constant
Bit rate : 384 Kbps
Channel(s) : 6 channels
Channel positions : Front: L C R, Side: L R, LFE
Sampling rate : 48.0 KHz
Bit depth : 16 bits
Compression mode : Lossy
Stream size : 289 MiB (14%)
Alignment : Split accross interleaves
Interleave, duration : 42 ms (1.00 video frame)
Interleave, preload duration : 500 ms

Моя максимальная скорость отдачи 100КБ/c
Раздаю с 7:00 до 00:00 по Москве

Зарегистрирован:
  • 06-Сен-18 00:22
  • Скачан: 974 раза

Скачать .torrent

21 KB

Тип: обычная
Статус: проверено
Размер: 1.98 GB  ·  magnetEB0127116BD94D712E9DF3B82A4A4F381122828E
  • Свернуть поддиректории
  • Развернуть
  • Переключить
  • Увел./умен. окно
загружается...

 
All rights reserved © 2017-2018
Loading...
Error