Моё сердце настаивает / Mi corazón insiste... en Lola Volcán / Серии: 61-90 из 133 (Николас Ди Бласи, Леонардо Галавис) [2011, США, Теленовелла, Мелодрама, SATRip]Т\к Много тв

Статистика раздачи
Размер:  16.36 GB   |   Зарегистрирован:  4 года 2 месяца   |   .torrent скачан:  889 раз

Полный источник: был сегодня

Автор
Сообщение

denzel1989

Стаж: 6 лет 8 месяцев

Сообщений: 1586

flag

denzel1989 · 02-Авг-14 15:29 (4 года 3 месяца назад, ред. 13-Сен-14 14:44)

 

Моё сердце настаивает / Mi corazón insiste... en Lola Volcán
Год выпуска: 2011
Страна: США
Производство: Telemundo Studios
Жанр: Теленовелла, Мелодрама
Серии (количество): 133
Продолжительность: 1 серия - ~00:55, 2 серия - ~00:45
Перевод: профессиональный многоголосый закадровый
Субтитры: Нет
Режиссёр: Николас Ди Бласи, Леонардо Галавис
В ролях: Женкарлос Канела, Кармен Вильялобос, Анхелика Мария, Анна Лаевская, Фабиан Риос, Кэти Барбери, Карлос Торрес, Россана Сан Хуан, Каролина Техера, Роберто Матеос
Описание: Это история двух молодых людей — Лолы и Андреса, которые страстно влюблены друг в друга. Многие противятся их союзу, в том числе и отец Андреса, который упрятывает девушку в тюрьму за преступление, которого она не совершала. С этого события жизнь Лолы изменится кардинально и вместе с Андресом она будет противостоять новым испытаниям. Прекрасная интриганка Дебора будет сражаться за любовь Андреса и в этой битве окажется способна на все, даже продать свою душу. А в центре всей истории — Чавела — тетя Лолы, которая сыграет свою роль в этой борьбе за любовь!
Доп. информация: Благодарность за запись с Т/к Много тв Sleon2008
Семпл
Все раздачи сериала
Качество: SATRip
Формат: AVI
Видео кодек: XviD
Аудио кодек: MP3
Видео: 704x528, (4:3) 25,(fps) 1650 (kbps),0.178 bit/pixel
Аудио: 48 kHz, MPEG Layer 3, 2 ch, ~128.00 kbps
MI
Общее
Полное имя : C:\Users\Мерлин\Desktop\Раздачи\Mi corazon insiste 1-\MSI-001.avi
Формат : AVI
Формат/Информация : Audio Video Interleave
Размер файла : 712 Мбайт
Продолжительность : 55 м.
Общий поток : 1788 Кбит/сек
Программа кодирования : VirtualDubMod 1.5.10.3 | www.virtualdub-fr.org || (build 2550/release)
Библиотека кодирования : VirtualDubMod build 2550/release
Видео
Идентификатор : 0
Формат : MPEG-4 Visual
Профиль формата : Advanced Simple@L5
Параметр BVOP формата : 1
Параметр QPel формата : Нет
Параметр GMC формата : Без точки перехода
Параметр матрицы формата : Выборочная
Идентификатор кодека : XVID
Идентификатор кодека/Подсказка : XviD
Продолжительность : 55 м.
Битрейт : 1650 Кбит/сек
Ширина : 704 пикселя
Высота : 528 пикселей
Соотношение сторон : 4:3
Частота кадров : 25,000 кадров/сек
Цветовое пространство : YUV
Субдискретизация насыщенности : 4:2:0
Битовая глубина : 8 бит
Тип развёртки : Прогрессивная
Метод сжатия : С потерями
Бит/(Пиксели*Кадры) : 0.178
Размер потока : 657 Мбайт (92%)
Библиотека кодирования : XviD 65
Аудио
Идентификатор : 1
Формат : MPEG Audio
Версия формата : Version 1
Профиль формата : Layer 3
Идентификатор кодека : 55
Идентификатор кодека/Подсказка : MP3
Продолжительность : 55 м.
Вид битрейта : Постоянный
Битрейт : 128 Кбит/сек
Каналы : 2 канала
Частота : 48,0 КГц
Метод сжатия : С потерями
Размер потока : 51,0 Мбайт (7%)
Выравнивание : Соединение по промежуткам
Продолжительность промежутка : 40 мс. (1,00 видеокадр)
Время предзагрузки промежутка : 504 мс.
Библиотека кодирования : L3.99r
Настройки программы : -m s -V 4 -q 2 -lowpass 17 -b 128
Скриншоты
Внимания раздача ведется путём добавления новых серий
Зарегистрирован:
  • 13-Сен-14 14:44
  • Скачан: 889 раз

Скачать .torrent

84 KB

Тип: обычная
Статус: проверено
Размер: 16.36 GB  ·  magnetEA499F6EBAF1812F196EB30B9F7C60C0CB814630
  • Свернуть поддиректории
  • Развернуть
  • Переключить
  • Увел./умен. окно
загружается...

denzel1989

Стаж: 6 лет 8 месяцев

Сообщений: 1586

flag

denzel1989 · 09-Авг-14 11:20 (спустя 6 дней, ред. 09-Авг-14 11:20)

Добавлена 66 серия обновите торрент

denzel1989

Стаж: 6 лет 8 месяцев

Сообщений: 1586

flag

denzel1989 · 15-Авг-14 20:56 (спустя 6 дней, ред. 15-Авг-14 20:56)

Добавлены 67-69 серии обновите торрент
Добавлена 70 серия

denzel1989

Стаж: 6 лет 8 месяцев

Сообщений: 1586

flag

denzel1989 · 20-Авг-14 14:00 (спустя 4 дня)

Добавлены 71-73 серии обновите торрент

denzel1989

Стаж: 6 лет 8 месяцев

Сообщений: 1586

flag

denzel1989 · 23-Авг-14 15:21 (спустя 3 дня)

Добавлены 74-76 серии обновите торрент

denzel1989

Стаж: 6 лет 8 месяцев

Сообщений: 1586

flag

denzel1989 · 02-Сен-14 17:33 (спустя 10 дней, ред. 02-Сен-14 17:33)

Добавлены 77-78 серии обновите торрент
Добавлены 79-80 серии обновите торрент
Добавлена 81 серия обновите торрент
Добавлена 82 серия обновите торрент

denzel1989

Стаж: 6 лет 8 месяцев

Сообщений: 1586

flag

denzel1989 · 07-Сен-14 09:17 (спустя 4 дня)

Добавлены 83-86 серии обновите торрент

denzel1989

Стаж: 6 лет 8 месяцев

Сообщений: 1586

flag

denzel1989 · 13-Сен-14 14:54 (спустя 6 дней, ред. 13-Сен-14 14:54)

Добавлены 87-89 серии обновите торрент
Добавлена 90 серия обновите торрент
91 Серия и далее http://GOSTRACKER.XYZ/viewtopic.php?t=4822919

prokopenko60

Стаж: 8 лет 3 месяца

Сообщений: 242

flag

prokopenko60 · 20-Ноя-14 16:34 (спустя 2 месяца 7 дней)

denzel1989
Большое спасибо за этот сериал! Но у меня что-то не качается,вообще не идёт,Почему?подскажите.Обновите торрент-как это сделать?

denzel1989

Стаж: 6 лет 8 месяцев

Сообщений: 1586

flag

denzel1989 · 20-Ноя-14 18:23 (спустя 1 час 49 мин.)

prokopenko60 писал(а):
65901893denzel1989
Большое спасибо за этот сериал! Но у меня что-то не качается,вообще не идёт,Почему?подскажите.Обновите торрент-как это сделать?
Вот
скрытый текст
Внимание! Раздача ведётся путём добавления новых серий; при каждом добавлении создаётся новый торрент. Чтобы начать докачку новой серии, пользователям необходимо сделать следующее:
(1) остановить скачивание,
(2) удалить старый торрент у себя из клиента (старые серии удалять не надо),
(3) скачать новый торрент и запустить его у себя в клиенте вместо старого, при этом указать клиенту путь в старую папку куда и должно происходить скачивание новых серий.
Ваш клиент при этом должен произвести хеширование (проверку) старой папки (если не производит сам - помогите ему сделать это), и будет докачивать только те серии которых у вас ещё нет. Старые серии при этом не удаляются, а продолжают раздаваться!
Eсли вы уже удалили старые серии, то предотвратить повторную закачку старых серий можно, отжав галочку в соответствующих местах при запуске нового торрента. По возможности, желательно не удалять старые серии как можно дольше чтобы релизёр не столько продолжал раздавать старые серии, а смог сконцентрироваться на новых.

Lana19852010

Стаж: 5 лет 10 месяцев

Сообщений: 6

flag

Lana19852010 · 13-Июл-15 06:59 (спустя 7 месяцев)

никак не могу скачать (((добавьте пожалуйста скорость

liana13

Стаж: 8 лет 2 месяца

Сообщений: 181

flag

liana13 · 25-Авг-15 20:18 (спустя 1 месяц 12 дней)

Большое спасибо за этот сериал. Очень увлекательный. Затягивает и интригует.

sanctuary_archer

Стаж: 10 лет 6 месяцев

Сообщений: 3


sanctuary_archer · 25-Сен-18 18:26 (спустя 3 года)

простите кто-нибудь может помочь в скачивании материала?
 
All rights reserved © 2017-2018
Loading...
Error