Дом странных детей Мисс Перегрин / Miss Peregrine's Home for Peculiar Children (Тим Бёртон / Tim Burton) [2016, Великобритания, Бельгия, США, фэнтези, приключения, экранизация, UHD BDRemux 2160p] Dub + 2x AVO + Original (Eng) + Sub (Rus, Eng)

Автор
Сообщение

arxivariys

Top Best

Стаж: 9 лет 2 месяца

Сообщений: 1296

arxivariys · 26-Авг-18 20:21 (2 месяца 24 дня назад, ред. 26-Авг-18 21:53)

Дом странных детей Мисс Перегрин / Miss Peregrine's Home for Peculiar Children


Страна: Великобритания, Бельгия, США
Студия: 20th Century Fox Film Corporation, Chernin Entertainment
Жанр: фэнтези, приключения, экранизация
Год выпуска: 2016
Продолжительность: 02:06:55

Перевод 1: Профессиональный (дублированный) Blu-Ray
Перевод 2: Авторский (одноголосый закадровый) Ю. Сербин
Перевод 3: Авторский (одноголосый закадровый) А. Гаврилов
Субтитры: русские (forced, full), английские (full, SDH)
Оригинальная аудиодорожка: английский

Режиссер: Тим Бёртон / Tim Burton
В ролях: Ева Грин, Эйса Баттерфилд, Сэмюэл Л. Джексон, Джуди Денч, Руперт Эверетт, Эллисон Джэнни, Крис О`Дауд, Теренс Стэмп, Элла Пёрнелл, Финлэй МакМиллан, Лорен МакКрости, Хейден Килер-Стоун, Джорджия Пембертон, Майло Паркер, Раффиелла Чепмен, Пикси Дейвис

Описание: Детство Джейкоба прошло под рассказы дедушки о приюте для необычных детей. Среди его обитателей девочка, которая умела держать в руках огонь, девочка, чьи ноги не касались земли, невидимый мальчик и близнецы, умевшие общаться без слов. Когда дедушка умирает, 16-летний Джейкоб получает загадочное письмо и отправляется на остров, где вырос его дед. Там он находит детей, которых раньше видел только на фотографиях.

imdb | kinopoisk | Сэмпл

Тип релиза: UHD BDRemux 2160p [Miss Peregrine's Home for Peculiar Children 2016 2160p UHD Blu-ray HEVC TrueHD 7 1-TERMiNAL]
Контейнер: MKV
Видео: MPEG-H HEVC Video / 34939 kbps / 3840x2160 / 23.976 fps / 16:9 / Main 10 Profile 5.1 High / 4:2:0 / 10 bits / HDR / BT.2020 /
Аудио 1: Russian DTS / 5.1 / 48 kHz / 768 kbps / 16-bit |Dub, Blu-Ray|
Аудио 2: Russian DTS-HD Master Audio / 7.1 / 48 kHz / 4522 kbps / 24-bit (DTS Core: 5.1-ES / 48 kHz / 1509 kbps / 24-bit) |Ю. Сербин|
Аудио 3: Russian DTS-HD Master Audio / 7.1 / 48 kHz / 4649 kbps / 24-bit (DTS Core: 5.1 / 48 kHz / 1509 kbps / 24-bit) |А. Гаврилов|
Аудио 4: English Dolby Atmos/TrueHD Audio / 7.1-Atmos / 48 kHz / 5037 kbps / 24-bit |original|
Аудио 5: English AC3 Core: 5.1 / 48 kHz / 640 kbps |original|
Формат субтитров: softsub [SRT]
MediaInfo
Код:
Общее
Уникальный идентификатор                 : 3816818141126518099876699572403546623 (0x2DF17A9D26C8AAB199BB1897545A9FF)
Полное имя                               : H:\UHD\Дом странных детей Мисс Перегрин.2016.UHD.Blu-Ray.Remux.2160.mkv
Формат                                   : Matroska
Версия формата                           : Version 4 / Version 2
Размер файла                             : 44,4 Гбайт
Продолжительность                        : 2 ч. 6 м.
Режим общего битрейта                    : Переменный
Общий поток                              : 50,0 Мбит/сек
Дата кодирования                         : UTC 2018-08-26 17:58:36
Программа кодирования                    : mkvmerge v26.0.0 ('In The Game') 64-bit
Библиотека кодирования                   : libebml v1.3.6 + libmatroska v1.4.9
Attachments                              : poster.jpg
Видео
Идентификатор                            : 1
Формат                                   : HEVC
Формат/Информация                        : High Efficiency Video Coding
Коммерческое название                    : HDR10
Профиль формата                          : Main 10@L5.1@High
Идентификатор кодека                     : V_MPEGH/ISO/HEVC
Продолжительность                        : 2 ч. 6 м.
Битрейт                                  : 34,9 Мбит/сек
Ширина                                   : 3840 пикселей
Высота                                   : 2160 пикселей
Соотношение сторон                       : 16:9
Режим частоты кадров                     : Постоянный
Частота кадров                           : 23,976 (24000/1001) кадра/сек
Цветовое пространство                    : YUV
Субдискретизация насыщенности            : 4:2:0 (Type 2)
Битовая глубина                          : 10 бит
Бит/(Пиксели*Кадры)                      : 0.176
Размер потока                            : 31,0 Гбайт (70%)
Библиотека кодирования                   : ATEME Titan File 3.7.6 (4.7.6.101)
Default                                  : Да
Forced                                   : Нет
Цветовой диапазон                        : Limited
Основные цвета                           : BT.2020
Характеристики трансфера                 : PQ
Коэффициенты матрицы                     : BT.2020 non-constant
MasteringDisplay_ColorPrimaries          : Display P3
MasteringDisplay_Luminance               : min: 0.0000 cd/m2, max: 1000 cd/m2
Аудио #1
Идентификатор                            : 2
Формат                                   : DTS
Формат/Информация                        : Digital Theater Systems
Идентификатор кодека                     : A_DTS
Продолжительность                        : 2 ч. 6 м.
Вид битрейта                             : Постоянный
Битрейт                                  : 768 Кбит/сек
Каналы                                   : 6 каналов
Расположение каналов                     : Front: L C R, Side: L R, LFE
Частота                                  : 48,0 КГц
Частота кадров                           : 93,750 кадра/сек (512 SPF)
Битовая глубина                          : 24 бит
Метод сжатия                             : С потерями
Размер потока                            : 697 Мбайт (2%)
Заголовок                                : Dub, Blu-Ray
Язык                                     : Russian
Default                                  : Да
Forced                                   : Нет
Аудио #2
Идентификатор                            : 3
Формат                                   : DTS
Формат/Информация                        : Digital Theater Systems
Профиль формата                          : MA / ES Matrix / Core
Идентификатор кодека                     : A_DTS
Продолжительность                        : 2 ч. 6 м.
Вид битрейта                             : Переменный / Постоянный / Постоянный
Битрейт                                  : 4579 Кбит/сек / 1509 Кбит/сек / 1509 Кбит/сек
Каналы                                   : 8 каналов / 7 каналов / 6 каналов
Расположение каналов                     : Front: L C R, Side: L R, Back: L R, LFE / Front: L C R, Side: L R, Back: C, LFE / Front: L C R, Side: L R, LFE
Частота                                  : 48,0 КГц
Частота кадров                           : 93,750 кадра/сек (512 SPF)
Битовая глубина                          : 24 бит
Метод сжатия                             : Без потерь / Lossy / Lossy
Размер потока                            : 4,06 Гбайт (9%)
Заголовок                                : Ю. Сербин
Язык                                     : Russian
Default                                  : Нет
Forced                                   : Нет
Аудио #3
Идентификатор                            : 4
Формат                                   : DTS
Формат/Информация                        : Digital Theater Systems
Профиль формата                          : MA / Core
Идентификатор кодека                     : A_DTS
Продолжительность                        : 2 ч. 6 м.
Вид битрейта                             : Переменный / Постоянный
Битрейт                                  : 4649 Кбит/сек / 1509 Кбит/сек
Каналы                                   : 8 каналов / 6 каналов
Расположение каналов                     : Front: L C R, Side: L R, Back: L R, LFE / Front: L C R, Side: L R, LFE
Частота                                  : 48,0 КГц
Частота кадров                           : 93,750 кадра/сек (512 SPF)
Битовая глубина                          : 24 бит
Метод сжатия                             : Без потерь / Lossy
Размер потока                            : 4,12 Гбайт (9%)
Заголовок                                : А. Гаврилов
Язык                                     : Russian
Default                                  : Нет
Forced                                   : Нет
Аудио #4
Идентификатор                            : 5
Формат                                   : TrueHD
Профиль формата                          : TrueHD+Atmos / TrueHD
Идентификатор кодека                     : A_TRUEHD
Продолжительность                        : 2 ч. 6 м.
Вид битрейта                             : Переменный
Битрейт                                  : 4397 Кбит/сек
Максимальный битрейт                     : 8187 Кбит/сек
Каналы                                   : Object Based / 8 каналов
Расположение каналов                     : Object Based / Front: L C R, Side: L R, Back: L R, LFE
Частота                                  :  / 48,0 КГц
Частота кадров                           : 1200,000 кадров/сек (40 SPF)
Метод сжатия                             : Без потерь
Размер потока                            : 3,90 Гбайт (9%)
Язык                                     : English
Default                                  : Нет
Forced                                   : Нет
Аудио #5
Идентификатор                            : 6
Формат                                   : AC-3
Формат/Информация                        : Audio Coding 3
Идентификатор кодека                     : A_AC3
Продолжительность                        : 2 ч. 6 м.
Вид битрейта                             : Постоянный
Битрейт                                  : 640 Кбит/сек
Каналы                                   : 6 каналов
Расположение каналов                     : Front: L C R, Side: L R, LFE
Частота                                  : 48,0 КГц
Частота кадров                           : 31,250 кадров/сек (1536 SPF)
Битовая глубина                          : 16 бит
Метод сжатия                             : С потерями
Размер потока                            : 581 Мбайт (1%)
Язык                                     : English
ServiceKind/String                       : Complete Main
Default                                  : Нет
Forced                                   : Нет
Текст #1
Идентификатор                            : 7
Формат                                   : UTF-8
Идентификатор кодека                     : S_TEXT/UTF8
Идентификатор кодека/Информация          : UTF-8 Plain Text
Продолжительность                        : 1 ч. 56 м.
Битрейт                                  : 1 бит/сек
ElementCount                             : 22
Размер потока                            : 979 байт (0%)
Заголовок                                : forced
Язык                                     : Russian
Default                                  : Да
Forced                                   : Нет
Текст #2
Идентификатор                            : 8
Формат                                   : UTF-8
Идентификатор кодека                     : S_TEXT/UTF8
Идентификатор кодека/Информация          : UTF-8 Plain Text
Продолжительность                        : 2 ч. 5 м.
Битрейт                                  : 74 бит/сек
ElementCount                             : 1402
Размер потока                            : 69,1 Кбайт (0%)
Заголовок                                : full
Язык                                     : Russian
Default                                  : Нет
Forced                                   : Нет
Текст #3
Идентификатор                            : 9
Формат                                   : UTF-8
Идентификатор кодека                     : S_TEXT/UTF8
Идентификатор кодека/Информация          : UTF-8 Plain Text
Продолжительность                        : 2 ч. 1 м.
Битрейт                                  : 48 бит/сек
ElementCount                             : 1570
Размер потока                            : 43,5 Кбайт (0%)
Заголовок                                : full
Язык                                     : English
Default                                  : Нет
Forced                                   : Нет
Текст #4
Идентификатор                            : 10
Формат                                   : UTF-8
Идентификатор кодека                     : S_TEXT/UTF8
Идентификатор кодека/Информация          : UTF-8 Plain Text
Продолжительность                        : 2 ч. 1 м.
Битрейт                                  : 53 бит/сек
ElementCount                             : 1804
Размер потока                            : 47,8 Кбайт (0%)
Заголовок                                : SDH
Язык                                     : English
Default                                  : Нет
Forced                                   : Нет
Меню
00:00:00.000                             : :00:00:00.000
00:03:40.804                             : :00:03:40.804
00:08:38.017                             : :00:08:38.017
00:13:06.828                             : :00:13:06.828
00:15:26.551                             : :00:15:26.551
00:19:47.478                             : :00:19:47.478
00:23:23.652                             : :00:23:23.652
00:27:47.040                             : :00:27:47.040
00:31:06.448                             : :00:31:06.448
00:34:36.783                             : :00:34:36.783
00:39:34.998                             : :00:39:34.998
00:42:42.810                             : :00:42:42.810
00:46:05.638                             : :00:46:05.638
00:48:36.497                             : :00:48:36.497
00:54:16.462                             : :00:54:16.462
00:57:21.480                             : :00:57:21.480
01:02:03.261                             : :01:02:03.261
01:08:20.847                             : :01:08:20.847
01:14:29.006                             : :01:14:29.006
01:18:54.063                             : :01:18:54.063
01:24:15.300                             : :01:24:15.300
01:28:42.442                             : :01:28:42.442
01:33:11.753                             : :01:33:11.753
01:36:29.033                             : :01:36:29.033
01:40:43.788                             : :01:40:43.788
01:46:09.238                             : :01:46:09.238
01:53:35.308                             : :01:53:35.308
02:00:34.394                             : :02:00:34.394
Скриншоты
Download
Для скачивания .torrent файлов необходима регистрация
Сайт не распространяет и не хранит электронные версии произведений, а лишь предоставляет доступ к создаваемому пользователями каталогу ссылок на торрент-файлы, которые содержат только списки хеш-сумм

bot · 26-Авг-18 21:53 (спустя 1 час 31 мин.)

Тема была перенесена из форума Оформление раздач (Группа "Top Seed") в форум HD Video
arxivariys
 

$ermok

Top Bonus 03* 1TB

Стаж: 9 лет 5 месяцев

Сообщений: 501

$ermok · 11-Сен-18 21:11 (спустя 16 дней)

посмотрим что за фильм такой

anatmd

Стаж: 10 лет 11 месяцев

Сообщений: 96

anatmd · 01-Окт-18 01:15 (спустя 19 дней)

спасибо за фильм!
 
All rights reserved © 2017-2018
Loading...
Error