Робин Гуд / Robin Hood (Ридли Скотт / Ridley Scott) [2010, США, Великобритания, боевик, драма, приключения, Blu-ray disc 2160p] [2-in-1: Theatrical & Director's Cut] [EUR] Dub + Sub Eng + Original Eng

Статистика раздачи
Размер:  83.22 GB   |   Зарегистрирован:  1 месяц 23 дня   |   .torrent скачан:  597 раз
Сиды:  3   Личи:  1
Автор
Сообщение

pirs18

Top Seed 05* 640r

Стаж: 8 лет 9 месяцев

Сообщений: 3937

flag

pirs18 · 24-Сен-18 11:02 (1 месяц 23 дня назад, ред. 24-Сен-18 12:37)

 

Робин Гуд / Robin Hood
Страна: США, Великобритания
Жанр: боевик, драма, приключения
Год выпуска: 2010
Продолжительность: 02:20:19 / 02:35:47

    Перевод: Профессиональный (дублированный)
    Субтитры: английские, французские, голландские, датские, финские, норвежские, шведские, чешские, польские, китайские, корейские, греческие, румынские, русские (forced)
    Оригинальная аудиодорожка: английский

      Режиссер: Ридли Скотт / Ridley Scott

        В ролях: Рассел Кроу, Кейт Бланшетт, Макс фон Сюдов, Уильям Хёрт, Марк Стронг, Оскар Айзек, Дэнни Хьюстон, Айлин Эткинс, Марк Эдди, Мэтью Макфейден
        Описание: Сюжет фильма «Робин Гуд» развивается в средневековой Англии, в смутные времена. Главный герой является отважным и храбрым лучником по имени Робин Гуд. Он служил в армии Ричарда Львиное Сердце. Кроль Ричард со своей армией штурмует французский замок. Во время боя король получает смертельную травму. Перед смертью он успевает передать свой меч Робин Гуду, чтобы тот отвез его к отцу в Ноттингем. В это же время один из солдат армии Ричарда везет корону умершего короля в Англию, чтобы передать ее новому правителю. На солдата нападают и подоспевший Робин успевает отбить корону. Приехав в Англию главный герой подвергается предательству, которого он никогда не простит…

          Тип релиза: Blu-ray disc
          Контейнер: BDMV

            Видео: MPEG-H HEVC Video 48374 kbps 2160p / 23.976 fps / 16:9 / Main 10 @ Level 5.1 @ High / 4:2:0 / 10 bits / HDR10 / Limited Range / BT.2020

              Аудио 1: DTS:X/DTS-HD Master Audio English 7419 kbps 7.1-X / 48 kHz / 7419 kbps / 24-bit (DTS Core: 5.1 / 48 kHz / 1509 kbps / 24-bit)
              Аудио 2: DTS Audio French 768 kbps 5.1 / 48 kHz / 768 kbps / 24-bit
              Аудио 3: DTS Audio Russian 768 kbps 5.1 / 48 kHz / 768 kbps / 24-bit
              Аудио 4: DTS Audio Czech 768 kbps 5.1 / 48 kHz / 768 kbps / 24-bit
              Аудио 5: Dolby Digital Audio Polish 448 kbps 5.1 / 48 kHz / 448 kbps / DN -4dB
              BDInfo
              DISC INFO:
              Disc Title: Robin Hood
              Disc Size: 89,361,792,639 bytes
              Protection: AACS2
              Extras: Ultra HD, BD-Java
              BDInfo: 0.7.4.0
              PLAYLIST REPORT:
              Name: 00801.MPLS
              Length: 2:35:47.671 (h:m:s.ms)
              Size: 72,414,180,480 bytes
              Total Bitrate: 61.97 Mbps
              VIDEO:
              Codec Bitrate Description
              ----- ------- -----------
              MPEG-H HEVC Video 48374 kbps 2160p / 23.976 fps / 16:9 / Main 10 @ Level 5.1 @ High / 4:2:0 / 10 bits / HDR10 / Limited Range / BT.2020 / PQ / BT.2020 non-constant / Mastering display color primaries: Display P3 / Mastering display luminance: min: 0.0050 cd/m2, max: 1000 cd/m2 / Maximum Content Light Level: 1001 cd / m2 / Maximum Frame-Average Light Level: 328 cd/m2
              AUDIO:
              Codec Language Bitrate Description
              ----- -------- ------- -----------
              DTS:X/DTS-HD Master Audio English 7419 kbps 7.1-X / 48 kHz / 7419 kbps / 24-bit (DTS Core: 5.1 / 48 kHz / 1509 kbps / 24-bit)
              DTS Audio French 768 kbps 5.1 / 48 kHz / 768 kbps / 24-bit
              DTS Audio Russian 768 kbps 5.1 / 48 kHz / 768 kbps / 24-bit
              DTS Audio Czech 768 kbps 5.1 / 48 kHz / 768 kbps / 24-bit
              Dolby Digital Audio Polish 448 kbps 5.1 / 48 kHz / 448 kbps / DN -4dB
              SUBTITLES:
              Codec Language Bitrate Description
              ----- -------- ------- -----------
              Presentation Graphics English 27.447 kbps
              Presentation Graphics French 21.468 kbps
              Presentation Graphics Dutch 20.552 kbps
              Presentation Graphics Danish 22.952 kbps
              Presentation Graphics Finnish 22.368 kbps
              Presentation Graphics Norwegian 21.683 kbps
              Presentation Graphics Swedish 23.771 kbps
              Presentation Graphics Czech 22.972 kbps
              Presentation Graphics Polish 23.254 kbps
              Presentation Graphics Chinese 16.645 kbps
              Presentation Graphics Chinese 19.272 kbps
              Presentation Graphics Korean 14.296 kbps
              Presentation Graphics Greek 28.208 kbps
              Presentation Graphics Romanian 23.528 kbps
              Presentation Graphics French 0.614 kbps
              Presentation Graphics Russian 1.406 kbps
              Presentation Graphics Czech 0.751 kbps
              FILES:
              Name Time In Length Size Total Bitrate
              ---- ------- ------ ---- -------------
              00000.M2TS 0:00:00.000 0:04:52.583 2,214,520,896 60,533
              00013.M2TS 0:04:52.583 0:01:18.119 660,414,720 67,559
              00002.M2TS 0:06:10.703 0:01:12.113 573,218,304 63,517
              00017.M2TS 0:07:22.817 0:00:33.950 273,316,608 64,246
              00094.M2TS 0:07:56.767 0:00:47.922 385,391,040 64,223
              00133.M2TS 0:08:44.690 0:00:17.142 134,107,968 62,283
              00095.M2TS 0:09:01.832 0:11:00.493 5,098,834,368 61,750
              00014.M2TS 0:20:02.326 0:01:03.104 396,860,736 50,245
              00005.M2TS 0:21:05.430 0:00:34.075 279,419,712 65,440
              00018.M2TS 0:21:39.506 0:03:37.091 1,674,647,424 61,688
              00097.M2TS 0:25:16.598 0:01:08.777 543,052,608 63,090
              00136.M2TS 0:26:25.375 0:00:47.714 366,427,200 61,330
              00098.M2TS 0:27:13.089 0:05:50.683 2,748,293,568 62,681
              00137.M2TS 0:33:03.773 0:07:36.747 3,574,401,792 62,595
              00099.M2TS 0:40:40.521 0:05:05.680 2,361,470,592 61,785
              00138.M2TS 0:45:46.201 0:06:54.413 3,221,013,312 62,167
              00100.M2TS 0:52:40.615 0:04:27.934 2,061,744,000 61,541
              00139.M2TS 0:57:08.549 0:00:31.197 242,059,584 61,905
              00101.M2TS 0:57:39.747 0:15:10.909 7,027,562,112 61,713
              00140.M2TS 1:12:50.657 0:02:30.525 1,161,718,848 61,708
              00102.M2TS 1:15:21.183 0:03:55.568 1,838,346,432 62,409
              00141.M2TS 1:19:16.751 0:04:18.841 2,004,052,032 61,919
              00103.M2TS 1:23:35.593 0:09:23.604 4,409,428,992 62,580
              00142.M2TS 1:32:59.198 0:04:23.930 2,042,166,528 61,881
              00104.M2TS 1:37:23.128 0:02:58.887 1,375,427,904 61,482
              00143.M2TS 1:40:22.015 0:01:01.728 466,426,944 60,367
              00105.M2TS 1:41:23.744 0:01:15.074 582,382,464 61,990
              00093.M2TS 1:42:38.819 0:02:42.829 1,234,838,400 60,638
              00007.M2TS 1:45:21.648 0:01:24.751 651,171,840 61,406
              00015.M2TS 1:46:46.399 0:00:36.286 266,906,496 58,710
              00020.M2TS 1:47:22.685 0:08:20.458 3,869,469,504 61,845
              00146.M2TS 1:55:43.144 0:00:28.153 215,146,560 60,956
              00108.M2TS 1:56:11.297 0:02:41.703 1,261,056,576 62,357
              00147.M2TS 1:58:53.000 0:01:13.239 564,111,168 61,548
              00109.M2TS 2:00:06.240 0:04:34.023 2,111,975,040 61,639
              00096.M2TS 2:04:40.264 0:02:14.634 818,701,632 48,617
              00021.M2TS 2:06:54.898 0:11:57.717 5,702,323,392 63,553
              00016.M2TS 2:18:52.615 0:02:41.161 1,343,620,032 66,663
              00022.M2TS 2:21:33.776 0:14:13.894 6,658,153,152 62,373
              DISC INFO:
              Disc Title: Robin Hood
              Disc Size: 89,361,792,639 bytes
              Protection: AACS2
              Extras: Ultra HD, BD-Java
              BDInfo: 0.7.4.0
              PLAYLIST REPORT:
              Name: 00800.MPLS
              Length: 2:20:19.410 (h:m:s.ms)
              Size: 65,121,791,424 bytes
              Total Bitrate: 61.88 Mbps
              VIDEO:
              Codec Bitrate Description
              ----- ------- -----------
              MPEG-H HEVC Video 48249 kbps 2160p / 23.976 fps / 16:9 / Main 10 @ Level 5.1 @ High / 4:2:0 / 10 bits / HDR10 / Limited Range / BT.2020 / PQ / BT.2020 non-constant / Mastering display color primaries: Display P3 / Mastering display luminance: min: 0.0050 cd/m2, max: 1000 cd/m2 / Maximum Content Light Level: 1001 cd / m2 / Maximum Frame-Average Light Level: 328 cd/m2
              AUDIO:
              Codec Language Bitrate Description
              ----- -------- ------- -----------
              DTS:X/DTS-HD Master Audio English 7451 kbps 7.1-X / 48 kHz / 7451 kbps / 24-bit (DTS Core: 5.1 / 48 kHz / 1509 kbps / 24-bit)
              DTS Audio French 768 kbps 5.1 / 48 kHz / 768 kbps / 24-bit
              DTS Audio Russian 768 kbps 5.1 / 48 kHz / 768 kbps / 24-bit
              DTS Audio Czech 768 kbps 5.1 / 48 kHz / 768 kbps / 24-bit
              Dolby Digital Audio Polish 448 kbps 5.1 / 48 kHz / 448 kbps / DN -4dB
              SUBTITLES:
              Codec Language Bitrate Description
              ----- -------- ------- -----------
              Presentation Graphics English 27.471 kbps
              Presentation Graphics French 21.316 kbps
              Presentation Graphics Dutch 20.221 kbps
              Presentation Graphics Danish 22.888 kbps
              Presentation Graphics Finnish 22.355 kbps
              Presentation Graphics Norwegian 21.467 kbps
              Presentation Graphics Swedish 23.980 kbps
              Presentation Graphics Czech 22.801 kbps
              Presentation Graphics Polish 23.238 kbps
              Presentation Graphics Chinese 16.300 kbps
              Presentation Graphics Chinese 19.139 kbps
              Presentation Graphics Korean 14.040 kbps
              Presentation Graphics Greek 28.194 kbps
              Presentation Graphics Romanian 23.747 kbps
              Presentation Graphics French 0.665 kbps
              Presentation Graphics Russian 1.511 kbps
              Presentation Graphics Czech 0.749 kbps
              FILES:
              Name Time In Length Size Total Bitrate
              ---- ------- ------ ---- -------------
              00000.M2TS 0:00:00.000 0:04:52.583 2,214,520,896 60,533
              00024.M2TS 0:04:52.583 0:00:49.257 374,661,696 60,747
              00002.M2TS 0:05:41.841 0:01:12.113 573,218,304 63,517
              00025.M2TS 0:06:53.955 0:00:27.819 223,789,824 64,163
              00094.M2TS 0:07:21.774 0:00:47.922 385,391,040 64,223
              00114.M2TS 0:08:09.697 0:00:16.474 128,437,056 62,054
              00095.M2TS 0:08:26.172 0:11:00.493 5,098,834,368 61,750
              00026.M2TS 0:19:26.665 0:00:53.511 337,625,280 50,396
              00005.M2TS 0:20:20.177 0:00:34.075 279,419,712 65,440
              00008.M2TS 0:20:54.252 0:01:24.918 646,557,120 60,851
              00097.M2TS 0:22:19.171 0:01:08.777 543,052,608 63,090
              00117.M2TS 0:23:27.948 0:00:43.543 335,133,696 61,454
              00098.M2TS 0:24:11.491 0:05:50.683 2,748,293,568 62,681
              00118.M2TS 0:30:02.175 0:06:36.521 3,097,350,144 62,477
              00099.M2TS 0:36:38.696 0:05:05.680 2,361,470,592 61,785
              00119.M2TS 0:41:44.376 0:04:53.626 2,284,905,216 62,236
              00100.M2TS 0:46:38.003 0:04:27.934 2,061,744,000 61,541
              00120.M2TS 0:51:05.937 0:01:03.730 496,394,496 62,230
              00101.M2TS 0:52:09.668 0:15:10.909 7,027,562,112 61,713
              00121.M2TS 1:07:20.578 0:01:54.280 890,463,168 62,290
              00102.M2TS 1:09:14.858 0:03:55.568 1,838,346,432 62,409
              00122.M2TS 1:13:10.427 0:01:01.352 464,795,712 60,524
              00103.M2TS 1:14:11.780 0:09:23.604 4,409,428,992 62,580
              00123.M2TS 1:23:35.385 0:02:02.413 955,292,544 62,388
              00104.M2TS 1:25:37.799 0:02:58.887 1,375,427,904 61,482
              00124.M2TS 1:28:36.686 0:00:54.888 415,355,328 60,447
              00105.M2TS 1:29:31.574 0:01:15.074 582,382,464 61,990
              00009.M2TS 1:30:46.649 0:00:23.815 176,911,488 59,220
              00007.M2TS 1:31:10.464 0:01:24.751 651,171,840 61,406
              00012.M2TS 1:32:35.216 0:00:36.286 266,795,904 58,685
              00020.M2TS 1:33:11.502 0:08:20.458 3,869,469,504 61,845
              00127.M2TS 1:41:31.960 0:00:19.144 149,130,240 62,049
              00108.M2TS 1:41:51.104 0:02:41.703 1,261,056,576 62,357
              00128.M2TS 1:44:32.807 0:01:09.861 538,263,552 61,564
              00109.M2TS 1:45:42.669 0:04:34.023 2,111,975,040 61,639
              00010.M2TS 1:50:16.693 0:01:17.368 553,735,488 57,195
              00021.M2TS 1:51:34.062 0:11:57.717 5,702,323,392 63,553
              00011.M2TS 2:03:31.779 0:02:33.736 1,032,950,976 53,722
              00022.M2TS 2:06:05.515 0:14:13.894 6,658,153,152 62,373
              Скриншоты

              Раздаю до первых 5-ти скачавших, на раздачи не возвращаюсь...
              Зарегистрирован:
              • 24-Сен-18 11:02
              • Скачан: 597 раз

              Скачать .torrent

              467 KB

              Тип: обычная
              Статус: проверено
              Размер: 83.22 GB  ·  magnet858CCA2CEB5955DF35EFAE468754B96240F9642A
              • Свернуть поддиректории
              • Развернуть
              • Переключить
              • Увел./умен. окно
              загружается...

              adeon05

              Стаж: 10 лет 4 месяца

              Сообщений: 10

              flag

              adeon05 · 26-Сен-18 04:51 (спустя 1 день 17 часов)

              Подскажите, пожалуйста, какой из файлов плейлиста соответствует режиссерской версии, а какой театральной? По размеру они одинаковые. Спасибо!

              pirs18

              Top Seed 05* 640r

              Стаж: 8 лет 9 месяцев

              Сообщений: 3937

              flag

              pirs18 · 26-Сен-18 12:35 (спустя 7 часов)

              adeon05 писал(а):
              76023383Подскажите, пожалуйста, какой из файлов плейлиста соответствует режиссерской версии, а какой театральной? По размеру они одинаковые. Спасибо!
              фильм разбит на много файлов посмотри BDInfo

              adeon05

              Стаж: 10 лет 4 месяца

              Сообщений: 10

              flag

              adeon05 · 26-Сен-18 21:39 (спустя 9 часов)

              Спасибо!
              00800 - Театральная версия (02:20:19)
              00801 - Режиссёрская версия (02:35:48)

              Kanopus12

              Top Bonus 07* 100TB

              Стаж: 9 лет 4 месяца

              Сообщений: 157

              flag

              Kanopus12 · 26-Сен-18 23:45 (спустя 2 часа 6 мин.)

              Как смотреть такие Uhd Blu-Ray (которые разбиты на пачку файлов), MPC-HomeCinema и PotPlayer не работают по PlayList Uhd Blu-Ray, или же как перегнать в Remux - tsMuxeR_2.6.12 так же не работает по PlayList Uhd Blu-Ray.

              adeon05

              Стаж: 10 лет 4 месяца

              Сообщений: 10

              flag

              adeon05 · 27-Сен-18 00:18 (спустя 33 мин.)

              Цитата:
              Как смотреть такие Uhd Blu-Ray (которые разбиты на пачку файлов), MPC-HomeCinema и PotPlayer не работают по PlayList Uhd Blu-Ray, или же как перегнать в Remux - tsMuxeR_2.6.12 так же не работает по PlayList Uhd Blu-Ray.
              Попробуйте обновить (поставить последнюю версию) K-Lite Codec Pack и Media Player Classic. Должно заработать.
              А если совсем захотите развлечься, скачайте Scenarist UHD, и сделайте себе Blu-ray UHD HDR Remux.

              Kanopus12

              Top Bonus 07* 100TB

              Стаж: 9 лет 4 месяца

              Сообщений: 157

              flag

              Kanopus12 · 27-Сен-18 02:21 (спустя 2 часа 3 мин.)

              adeon05
              В том то и дело что самый последний MPC-HC.1.7.17.x64 по PlayList работает с Blu-ray, а с Uhd Blu-Ray не работает.

              adeon05

              Стаж: 10 лет 4 месяца

              Сообщений: 10

              flag

              adeon05 · 27-Сен-18 07:48 (спустя 5 часов, ред. 27-Сен-18 07:48)

              Цитата:
              В том то и дело что самый последний MPC-HC.1.7.17.x64 по PlayList работает с Blu-ray, а с Uhd Blu-Ray не работает.
              Последний, в смысле сентябрьский?! У меня до вчерашнего дня тоже плей лист UHD не воспроизводился. После обновления всё заработало.
              Кроме K-Lite Mega Codec Pack и Media Player Classic больше ничего не было. Потом ещё MadVR прикрутил, для корректного воспроизведения HDR. Попробуйте!
              Похоже от версии Media Player Classic ничего не зависит. На моём компьютере файлы PlayList Uhd Blu-Ray уже открываются на Windows Media Player (раньше этого не было). Буду копать дальше.))

              Kanopus12

              Top Bonus 07* 100TB

              Стаж: 9 лет 4 месяца

              Сообщений: 157

              flag

              Kanopus12 · 28-Сен-18 20:26 (спустя 1 день 12 часов)

              adeon05
              MPC-HC.1.8.2.2.x64 - нормально открывает Uhd Blu-Ray (как Blu-Ray), непонятно только - зачем сделали кнопки управления в 5 раз больше.

              ShiftTLT

              Стаж: 8 лет 2 месяца

              Сообщений: 63

              flag

              ShiftTLT · 05-Окт-18 18:01 (спустя 6 дней)

              Потому что разрешение выше и трудно попасть мышкой)

              paponidze

              Стаж: 9 лет 5 месяцев

              Сообщений: 15

              flag

              paponidze · 07-Окт-18 13:57 (спустя 1 день 19 часов)

              А кто подскажет чем воспроизвести на Android TV 4K?
              VLC не работает с plylist...
               
              All rights reserved © 2017-2018
              Loading...
              Error