Омер и сын звезды / Omer and the Starchild / Omer et le fils de l'étoile / Сезон: 1 / Серии: 10, 21 из 26 (Фредерик Коскас / Frédéric Koskas) [1992-1993, мультсериал, TVRip-AVC] DUB (Фортуна-фильм)

Статистика раздачи
Размер:  1.73 GB   |   Зарегистрирован:  1 месяц   |   .torrent скачан:  70 раз

Полный источник: был сегодня

  Личи:  1
Автор
Сообщение

GVR232

RG Мультфильмы

Стаж: 9 лет 10 месяцев

Сообщений: 1026

flag

GVR232 · 08-Окт-18 17:32 (1 месяц 6 дней назад, ред. 15-Окт-18 09:08)

 

Омер и сын звезды / Omer and the Starchild / Omer et le fils de l'étoile
Страна: Франция
Жанр: мультсериал, фантастика, приключения
Продолжительность: ~26мин.
Год выпуска: 1992-1993
Перевод: Профессиональный (полное дублирование) [Фортуна-фильм, по заказу ТВ6]*
*Роли дублировали: Андрей Градов, Юрий Саранцев, Елена Соловьёва, Никита Прозоровский, Александр Рыжков
Русские субтитры: нет
Режиссёр: Фредерик Коскас / Frédéric Koskas
Описание: Маленький червячок по имени Омер живет на Земле вместе со своим другом Хутом, филином-философом. Земля захвачена злыми силами, но надежда теплится благодаря пророчеству о спасителе, которого называют "Сыном Звезд". Однажды огромный алмаз буквально падает с небес и осыпает Омера звездной пылью. Тот начинает светиться и обретает способность летать. Одновременно с алмазом появляется Дэн, тот о ком было сказано в пророчестве. В начале Дэн ведёт себя несуразно, ведь он ничего не знает о жизни здесь. Оба друга, филин и червячок, осознают, что на них ложится ответственность за образование молодого человека, а также необходимость приложения собственных сил. Заручившись помощью Ома (слепого старца и мудрого обезьяноподобного существа) и Стеллы (морской звезды), они пытаются спасти Сирену (русалку) и уничтожить Моргана, воплощение темных сил, а также сражаются с Гадиками (семь довольно глупых существ, каждое из которых отщепенец отдельно взятого народа).
Всего на Земле проживает одиннадцать народов и как только Сын Звезд выполнит главную задачу и соберет всех Волшебников, по одному от каждого народа, люди по всему земному шару наконец станут людьми и обретут свободу.
Список серий:
10. Сердце эльфов / The Heart of the Elves / Le Cœur des Elfes [не с начала, не хватает ~2мин.]
21. Большая пирамида / The Big Pyramid / La Grande Pyramide
| Релиз:
Благодарности:
  1. Спасибо Nekontroliruemij_devil за исходную запись с телеканала ТВ6-Москва
  2. Спасибо xfiles за консультации по кодированию AVC

Семпл: https://yadi.sk/i/8rlIgZ4qODlTSQ
Ссылка на предыдущие и альтернативные раздачи
Качество: TVRip-AVC
Формат: MKV
Видео:
  1. 694x556 (4:3) @ 757x556, 25 fps, AVC ~4462 kbps avg, 0.463 bit/pixel [10 серия]
  2. 694x564 (4:3) @ 756x564, 25 fps, AVC ~4361 kbps avg, 0.446 bit/pixel [21 серия]
Аудио #1: Русский, 48 KHz, AC3, 1 ch, 192 Kbps
Аудио #2: Русский, 48 KHz, FLAC, 1 ch, 412 Kbps
Субтитры: нет
MediaInfo
S1E10 - The Heart of the Elves (cuts)
General
Unique ID : 322663334243901111265787714775580615505 (0xF2BEB29EEEB06E96BB2E39FB61B32351)
Complete name : Omer and the Star Child TVRip-AVC\S1E10 - The Heart of the Elves (cuts) TVRip-AVC.mkv
Format : Matroska
Format version : Version 4
File size : 860 MiB
Duration : 23 min 42 s
Overall bit rate mode : Variable
Overall bit rate : 5 069 kb/s
Encoded date : UTC 2018-10-08 04:32:01
Writing application : mkvmerge v25.0.0 ('Prog Noir') 64-bit
Writing library : libebml v1.3.6 + libmatroska v1.4.9
Video
ID : 1
Format : AVC
Format/Info : Advanced Video Codec
Format profile : High@L4
Format settings : CABAC / 16 Ref Frames
Format settings, CABAC : Yes
Format settings, ReFrames : 16 frames
Codec ID : V_MPEG4/ISO/AVC
Duration : 23 min 42 s
Bit rate : 4 462 kb/s
Width : 694 pixels
Height : 556 pixels
Display aspect ratio : 4:3
Frame rate mode : Constant
Frame rate : 25.000 FPS
Color space : YUV
Chroma subsampling : 4:2:0
Bit depth : 8 bits
Scan type : Progressive
Bits/(Pixel*Frame) : 0.463
Stream size : 757 MiB (88%)
Writing library : x264 core 152 r2851kMod ba24899
Encoding settings : cabac=1 / ref=16 / deblock=1:-3:-2 / analyse=0x3:0x133 / me=umh / subme=11 / psy=1 / fade_compensate=0.00 / psy_rd=1.00:0.00 / mixed_ref=1 / me_range=48 / chroma_me=1 / trellis=2 / 8x8dct=1 / cqm=0 / deadzone=21,11 / fast_pskip=0 / chroma_qp_offset=-2 / threads=17 / lookahead_threads=4 / sliced_threads=0 / nr=0 / decimate=1 / interlaced=0 / bluray_compat=0 / constrained_intra=0 / bframes=16 / b_pyramid=2 / b_adapt=2 / b_bias=0 / direct=3 / weightb=1 / open_gop=0 / weightp=0 / keyint=250 / keyint_min=25 / scenecut=40 / intra_refresh=0 / rc=crf / mbtree=0 / crf=19.6000 / qcomp=0.60 / qpmin=0 / qpmax=69 / qpstep=4 / ip_ratio=1.40 / pb_ratio=1.30 / aq=1:0.75
Default : Yes
Forced : No
Color range : Limited
Color primaries : BT.601 PAL
Transfer characteristics : BT.470 System B/G
Matrix coefficients : BT.470 System B/G
Audio #1
ID : 2
Format : AC-3
Format/Info : Audio Coding 3
Commercial name : Dolby Digital
Codec ID : A_AC3
Duration : 23 min 42 s
Bit rate mode : Constant
Bit rate : 192 kb/s
Channel(s) : 1 channel
Channel layout : C
Sampling rate : 48.0 kHz
Frame rate : 31.250 FPS (1536 SPF)
Bit depth : 16 bits
Compression mode : Lossy
Stream size : 32.6 MiB (4%)
Title : Дубляж, Фортуна-фильм, AC3 192kbps
Language : Russian
Service kind : Complete Main
Default : Yes
Forced : No
Audio #2
ID : 3
Format : FLAC
Format/Info : Free Lossless Audio Codec
Codec ID : A_FLAC
Duration : 23 min 42 s
Bit rate mode : Variable
Bit rate : 412 kb/s
Channel(s) : 1 channel
Channel layout : C
Sampling rate : 48.0 kHz
Frame rate : 41.667 FPS (1152 SPF)
Bit depth : 16 bits
Compression mode : Lossless
Stream size : 69.8 MiB (8%)
Title : Дубляж, Фортуна-фильм, FLAC
Writing library : libFLAC 1.0.25 (UTC 2007-09-17)
Language : Russian
Default : No
Forced : No
S1E21 - The Big Pyramid
General
Unique ID : 146454177591620121506875137628052692776 (0x6E2E0C71BBB23B42D0B2649812F09F28)
Complete name : Omer and the Star Child TVRip-AVC\S1E21 - The Big Pyramid TVRip-AVC.mkv
Format : Matroska
Format version : Version 4
File size : 913 MiB
Duration : 25 min 41 s
Overall bit rate mode : Variable
Overall bit rate : 4 966 kb/s
Encoded date : UTC 2018-10-08 06:59:22
Writing application : mkvmerge v25.0.0 ('Prog Noir') 64-bit
Writing library : libebml v1.3.6 + libmatroska v1.4.9
Video
ID : 1
Format : AVC
Format/Info : Advanced Video Codec
Format profile : High@L4
Format settings : CABAC / 16 Ref Frames
Format settings, CABAC : Yes
Format settings, ReFrames : 16 frames
Codec ID : V_MPEG4/ISO/AVC
Duration : 25 min 41 s
Bit rate : 4 361 kb/s
Width : 694 pixels
Height : 564 pixels
Display aspect ratio : 4:3
Frame rate mode : Constant
Frame rate : 25.000 FPS
Color space : YUV
Chroma subsampling : 4:2:0
Bit depth : 8 bits
Scan type : Progressive
Bits/(Pixel*Frame) : 0.446
Stream size : 801 MiB (88%)
Writing library : x264 core 152 r2851kMod ba24899
Encoding settings : cabac=1 / ref=16 / deblock=1:-3:-2 / analyse=0x3:0x133 / me=umh / subme=11 / psy=1 / fade_compensate=0.00 / psy_rd=1.00:0.00 / mixed_ref=1 / me_range=48 / chroma_me=1 / trellis=2 / 8x8dct=1 / cqm=0 / deadzone=21,11 / fast_pskip=0 / chroma_qp_offset=-2 / threads=18 / lookahead_threads=4 / sliced_threads=0 / nr=0 / decimate=1 / interlaced=0 / bluray_compat=0 / constrained_intra=0 / bframes=16 / b_pyramid=2 / b_adapt=2 / b_bias=0 / direct=3 / weightb=1 / open_gop=0 / weightp=0 / keyint=250 / keyint_min=25 / scenecut=40 / intra_refresh=0 / rc=crf / mbtree=0 / crf=18.1000 / qcomp=0.60 / qpmin=0 / qpmax=69 / qpstep=4 / ip_ratio=1.40 / pb_ratio=1.30 / aq=1:0.75
Default : Yes
Forced : No
Color range : Limited
Color primaries : BT.601 PAL
Transfer characteristics : BT.470 System B/G
Matrix coefficients : BT.470 System B/G
Audio #1
ID : 2
Format : AC-3
Format/Info : Audio Coding 3
Commercial name : Dolby Digital
Codec ID : A_AC3
Duration : 25 min 41 s
Bit rate mode : Constant
Bit rate : 192 kb/s
Channel(s) : 1 channel
Channel layout : C
Sampling rate : 48.0 kHz
Frame rate : 31.250 FPS (1536 SPF)
Bit depth : 16 bits
Compression mode : Lossy
Stream size : 35.3 MiB (4%)
Title : Дубляж, Фортуна-фильм, AC3 192kbps
Language : Russian
Service kind : Complete Main
Default : Yes
Forced : No
Audio #2
ID : 3
Format : FLAC
Format/Info : Free Lossless Audio Codec
Codec ID : A_FLAC
Duration : 25 min 41 s
Bit rate mode : Variable
Bit rate : 411 kb/s
Channel(s) : 1 channel
Channel layout : C
Sampling rate : 48.0 kHz
Frame rate : 41.667 FPS (1152 SPF)
Bit depth : 16 bits
Compression mode : Lossless
Stream size : 75.5 MiB (8%)
Title : Дубляж, Фортуна-фильм, FLAC
Writing library : libFLAC 1.0.25 (UTC 2007-09-17)
Language : Russian
Default : No
Forced : No
Скриншоты
ВНИМАНИЕ
- Большая просьба к тем, кто записывал тогда этот мультсериал на видеокассеты - проверьте свои записи. Нужны любые серии, даже те которые имеются в раздаче, и пусть даже не полностью. Пишите мне в ЛС, или в теме. Спасибо за внимание.
Зарегистрирован:
  • 15-Окт-18 08:58
  • Скачан: 70 раз

Скачать .torrent

18 KB

Тип: обычная
Статус: проверено
Размер: 1.73 GB  ·  magnet865431AC1FD4DD4BCB5FA6B5D88A15CF39D36DE1
  • Свернуть поддиректории
  • Развернуть
  • Переключить
  • Увел./умен. окно
загружается...

bot · 15-Окт-18 09:08 (спустя 6 дней)

Тема была перенесена из форума RG Мультфильмы (Оформление раздач) в форум Мультсериалы (SD Video)
GVR232
 

Nekontroliruemij_devil

Стаж: 9 лет

Сообщений: 1990

flag

Nekontroliruemij_devil · 08-Ноя-18 21:16 (спустя 1 месяц)

нашлась 7ая серия. ввиду особой редкости материала и не малых возможностей оцифровки, вопрос - умеет ли кто строка-в-строку дорисовывать повреждённые кадры? Там есть небольшая пожёванность и что-то вроде шатания антенны.
Но, нет так нет.
Выжму что смогу.
AleXounDirector -> AlSoDi project , Skye Film TV , Guyver MVO , Robocop 1988 MVO
AlSoDi project требуются- Таймеры, редакторы, оформители субтитров. Переводчики. Звукари для обработки и сведения озвучек. Мастера делать DVDRip'ы и BDRip'ы, а также руссификация дисков (вставлять озвучки и субтитры).
Разыскиваю VHS звук к : Тайный мир Алекс Мак; Компьютерные войны; Необыкновенная схватка; Гайвер.
Разыскиваю видеокассеты : Война гоботов; Super Mario Bros. ; Брэм и Элис...
 
All rights reserved © 2017-2018
Loading...
Error