Легендарная пятёрка / Les Légendaires / The Legendary Five / Сезон: 1 / Серии: 1-23 из 26 (Пракаш Топси / Prakash Topsy) [2017, Франция, Дисней, Приключения, Фэнтези, WEBRip 576p] Dub

Статистика раздачи
Размер:  3.22 GB   |   Зарегистрирован:  2 месяца 17 дней   |   .torrent скачан:  255 раз
Сиды:  3
Автор
Сообщение

redcord91

Стаж: 10 лет 8 месяцев

Сообщений: 145

flag

redcord91 · 02-Сен-18 23:16 (2 месяца 17 дней назад, ред. 19-Сен-18 16:28)

 

Легендарная пятёрка / Les Légendaires / The Legendary Five
Страна: Франция
Жанр: Дисней, Приключения, Фэнтези
Продолжительность серии: 00:23:00
Год выпуска: 2017
Русские субтитры: нет
Режиссёр: Пракаш Топси / Prakash Topsy
Описание: В центре сюжета — приключения бесстрашной команды: благородного рыцаря Данаэля, отзывчивой принцессы Джедины, могущественного эльфа Шайми, ловкого человека-зверя Грифа и находчивого знатока монстров Рацио. Однажды храбрые герои вступили в схватку с коварным колдуном Ворожеем и во время битвы случайно разбили волшебный камень Джовения, который дарует вечную молодость. Из-за этого происшествия все жители сказочного королевства снова стали детьми. Теперь легендарной пятёрке нужно как можно быстрее найти способ все исправить.
Семпл: http://multi-up.com/1207746
Качество: WEBRip 576p
Формат: MKV
Видео: AVC, 768x576, 25fps, ~900kbps
Аудио: [RU] AAC, 44,1 КГц, 2ch, 64kbps
Субтитры: отсутствуют
Подробные технические данные
Общее
Уникальный идентификатор : 81226285544154377229273197985244185069 (0x3D1B9D12460CC12E3F1348456FE901ED)
Полное имя : \\REDCORD-NAS\Video\Мульты\The Legendary Five\LF - 1x08.mkv
Формат : Matroska
Версия формата : Version 4 / Version 2
Размер файла : 140 Мбайт
Продолжительность : 21 м. 14 с.
Общий поток : 921 Кбит/сек
Дата кодирования : UTC 2018-09-02 19:51:39
Программа кодирования : mkvmerge v22.0.0 ('At The End Of The World') 64-bit
Библиотека кодирования : libebml v1.3.5 + libmatroska v1.4.8
Видео
Идентификатор : 1
Формат : AVC
Формат/Информация : Advanced Video Codec
Профиль формата : Main@L3.1
Параметр CABAC формата : Да
Параметр RefFrames формата : 1 кадр
Параметр GOP формата : M=1, N=12
Идентификатор кодека : V_MPEG4/ISO/AVC
Продолжительность : 21 м. 14 с.
Битрейт : 860 Кбит/сек
Ширина : 768 пикселей
Высота : 576 пикселей
Соотношение сторон : 4:3
Режим частоты кадров : Переменный
Частота кадров : 22,961 кадра/сек
Частота кадров в оригинале : 25,000 кадров/сек
Стандарт вещания : Component
Цветовое пространство : YUV
Субдискретизация насыщенности : 4:2:0
Битовая глубина : 8 бит
Тип развёртки : Прогрессивная
Бит/(Пиксели*Кадры) : 0.085
Размер потока : 131 Мбайт (93%)
Default : Да
Forced : Нет
Цветовой диапазон : Limited
Аудио
Идентификатор : 2
Формат : AAC
Формат/Информация : Advanced Audio Codec
Профиль формата : LC
Идентификатор кодека : A_AAC
Продолжительность : 21 м. 14 с.
Битрейт : 58,8 Кбит/сек
Каналы : 2 канала
Расположение каналов : Front: L R
Частота : 44,1 КГц
Частота кадров : 43,066 кадра/сек (1024 SPF)
Метод сжатия : С потерями
Размер потока : 8,93 Мбайт (6%)
Default : Да
Forced : Нет
Скриншоты
Предыдущие и альтернативные раздачи
ТЫКАЕМ СПАСИБО, ПОМОГАЕМ РАЗДАВАТЬ!
Зарегистрирован:
  • 02-Сен-18 23:16
  • Скачан: 255 раз

Скачать .torrent

17 KB

Тип: обычная
Статус: проверено
Размер: 3.22 GB  ·  magnetF88287883990EA16696E79734E93FB458CB633BF
  • Свернуть поддиректории
  • Развернуть
  • Переключить
  • Увел./умен. окно
загружается...

wew1324(2)

Стаж: 3 года

Сообщений: 19

flag

wew1324(2) · 07-Сен-18 12:31 (спустя 4 дня)

Только здесь и есть!

Analgin666

Стаж: 9 лет 6 месяцев

Сообщений: 1

flag

Analgin666 · 08-Сен-18 12:17 (спустя 23 часа)

Огромное СПАСИБО!!!

draconicara

Стаж: 6 лет 10 месяцев

Сообщений: 87

flag

draconicara · 23-Сен-18 16:29 (спустя 15 дней, ред. 23-Сен-18 16:29)

redcord91оставшиеся 3 серии когда будут? И поправь 8 серию (затыкается в трех местах, а потом прокручивается вперед) А некоторые серии вообще не до конца записаны.

redcord91

Стаж: 10 лет 8 месяцев

Сообщений: 145

flag

redcord91 · 28-Сен-18 09:49 (спустя 4 дня)

Про оставшиеся не знаю, к сожалению
8 попробую перезаоить (рип не мой)

draconicara

Стаж: 6 лет 10 месяцев

Сообщений: 87

flag

draconicara · 02-Окт-18 16:44 (спустя 4 дня)

redcord91
А "Зак Шторм суперпират" будешь выкладывать?

redcord91

Стаж: 10 лет 8 месяцев

Сообщений: 145

flag

redcord91 · 18-Окт-18 13:26 (спустя 15 дней)

возможно
если понравится
 
All rights reserved © 2017-2018
Loading...
Error