Холмс из Киото / Kyoto Teramachi Sanjou no Holmes / Холмс на Тэрамати-Сандзё, Киото [TV] [12 из 12] [Без хардсаба] [RUS(int), JAP, SUB] [2018, Приключения, детектив, WEBRip] [HWP]

Статистика раздачи
Размер:  3.44 GB   |   Зарегистрирован:  1 месяц 2 дня   |   .torrent скачан:  178 раз
Сиды:  6   Личи:  1
Автор
Сообщение

dimdimich

Top Seed 03* 160r

Стаж: 12 лет 2 месяца

Сообщений: 815

flag

dimdimich · 17-Окт-18 05:01 (1 месяц 2 дня назад, ред. 17-Окт-18 05:42)

 

Холмс на Тэрамати-Сандзё, Киото / Kyoto Teramachi Sanjou no Holmes / Холмс из Киото
Страна: Япония
Год выпуска: 2018
Жанр: Приключения, детектив, романтика
Тип: TV
Продолжительность: 24 мин. серия
Режиссер: Токиёси Сасаки
Студия: Seven
Описание:
Антикварные вещи таят в себе множество загадок, порой их судьба оказывается даже поинтереснее, чем у среднестатистического человека. Именно о таких тайнах и пойдёт речь в этом аниме. Старшеклассница Аой Маширо переезжает в Киото из префектуры Сайтама. Так получилось, что ей пришлось отнести семейный антиквариат в небольшой магазинчик под названием "Кура”. Эта антикварная лавочка находится в торговом квартале Тэрамати-Сандзё. Именно там Аой и знакомится с Киётакой Ягаширой, сыном владельца магазина.Киётака обладает отличной интуицией и хорошим логическим мышлением, за эти качества местные прозвали его Холмсом. У Аой же намётан глаз на ювелирные украшения, она сходу определяет их примерную стоимость и подлинность. Поэтому в итоге она устраивается в "Куру” на полставки. Так у Киётаки появляется замечательная напарница, вместе с которой они теперь будут изучать загадки и раскрывать тайны антикварных вещей, которые приносят в магазинчик клиенты. Давайте окунёмся в мистические события и узнаем секреты, которые верно хранят безмолвные вещи.
Доп. информация:
Релиз GSGroup

Качество: WEBRip
Тип релиза: Без хардсаба
Формат видео: AVI
Релиз/Автор рипа: gsg
Совместимость с бытовыми плеерами: Да
Видео: XviD, 720x400, 23.976 fps, 1345 Kbps, 8 bits
Аудио 1: AC-3, 48 KHz, 192 Kbps, 2 channels Язык Русский (в составе контейнера) ; Озвучка: женская одноголосая: Persona99
Аудио 2: AC-3, 48 KHz, 192 Kbps, 2 channels Язык Японский ; Озвучка 2: оригинал
Субтитры: внешние srt, ass Язык субтитров русский ; Перевод: Crunchyroll
Подробные тех. данные
General
Complete name : _E\Kyoto Teramachi Sanjou no Holmes\01_Kyoto Teramachi Sanjou no Holmes [Persona99](XviD 720x400 AC3).rus.jap.avi
Format : AVI
Format/Info : Audio Video Interleave
File size : 298 MiB
Duration : 23mn 51s
Overall bit rate : 1 744 Kbps
Writing application : VirtualDubMod 1.5.10.2 (build 2540/release)
Writing library : VirtualDubMod build 2540/release
Video
ID : 0
Format : MPEG-4 Visual
Format profile : Advanced Simple@L5
Format settings, BVOP : 2
Format settings, QPel : No
Format settings, GMC : No warppoints
Format settings, Matrix : Default (H.263)
Codec ID : XVID
Codec ID/Hint : XviD
Duration : 23mn 51s
Bit rate : 1 345 Kbps
Width : 720 pixels
Height : 400 pixels
Display aspect ratio : 16:9
Frame rate : 23.976 fps
Color space : YUV
Chroma subsampling : 4:2:0
Bit depth : 8 bits
Scan type : Progressive
Compression mode : Lossy
Bits/(Pixel*Frame) : 0.195
Stream size : 230 MiB (77%)
Writing library : XviD 67
Audio #1
ID : 1
Format : AC-3
Format/Info : Audio Coding 3
Mode extension : CM (complete main)
Format settings, Endianness : Big
Codec ID : 2000
Duration : 23mn 51s
Bit rate mode : Constant
Bit rate : 192 Kbps
Channel(s) : 2 channels
Channel positions : Front: L R
Sampling rate : 48.0 KHz
Compression mode : Lossy
Stream size : 32.8 MiB (11%)
Alignment : Split accross interleaves
Interleave, duration : 42 ms (1.00 video frame)
Interleave, preload duration : 500 ms
Audio #2
ID : 2
Format : AC-3
Format/Info : Audio Coding 3
Mode extension : CM (complete main)
Format settings, Endianness : Big
Codec ID : 2000
Duration : 23mn 51s
Bit rate mode : Constant
Bit rate : 192 Kbps
Channel(s) : 2 channels
Channel positions : Front: L R
Sampling rate : 48.0 KHz
Compression mode : Lossy
Stream size : 32.8 MiB (11%)
Alignment : Split accross interleaves
Interleave, duration : 42 ms (1.00 video frame)
Interleave, preload duration : 500 ms
Список эпизодов
01. Holmes and Zen Master Hakuin
02. In Days of Aoi
03. The Case of the Mt. Kurama Estate Inheritance
04. After the Festival
05. The Lost Dragon
06. The Connoisseur's Philosophy
07. Straying and Enlightenment
08. Christmas Eve Tears and a Broken Alibi
09. The Sound of the Bell at Gion
10. The Bisque Doll's Smile
11. Valentine's Party
12. Conditions of an Heir
Скриншоты

Семпл:
Зарегистрирован:
  • 17-Окт-18 05:01
  • Скачан: 178 раз

Скачать .torrent

21 KB

Тип: обычная
Статус: проверено
Размер: 3.44 GB  ·  magnet3047BEBE3650A1AB9CA16C93C51D5578526CEAEB
  • Свернуть поддиректории
  • Развернуть
  • Переключить
  • Увел./умен. окно
загружается...



«Повода нет, чтоб веселиться,Повод только пойти и напиться.»

Retribution.Tula

Стаж: 6 лет 10 месяцев

Сообщений: 36

flag

Retribution.Tula · 18-Окт-18 19:46 (спустя 1 день 14 часов)

всё супер. спасибо за раздачу.)
 
All rights reserved © 2017-2018
Loading...
Error