По соображениям совести / Hacksaw Ridge (Мэл Гибсон / Mel Gibson) [2016, Австралия, США, драма, военный, история, UHD BDRemux 2160p] Dub + 2x AVO + VO + Original (Eng) + Sub (Rus, Eng)

Статистика раздачи
Размер:  79.26 GB   |   Зарегистрирован:  2 месяца 23 дня   |   .torrent скачан:  689 раз
Сиды:  5   Личи:  2
Автор
Сообщение

arxivariys

Top Best

Стаж: 9 лет 2 месяца

Сообщений: 1296

flag

arxivariys · 04-Янв-18 21:36 (10 месяцев назад, ред. 27-Авг-18 22:19)

 

По соображениям совести / Hacksaw Ridge


Страна: Австралия, США
Студия: Cross Creek Pictures, Demarest Media, IM Global
Жанр: драма, военный, история
Год выпуска: 2016
Продолжительность: 02:19:19

Перевод 1: Профессиональный (дублированный) iTunes
Перевод 2: Профессиональный (дублированный) Dub, Custom
Перевод 3: Авторский (одноголосый закадровый) С. Визгунов
Перевод 4: Одноголосый закадровый Д. Есарев
Перевод 5: Авторский (одноголосый закадровый) Ю. Сербин
Субтитры: русские (forced, full), английские (full, SDH)
Оригинальная аудиодорожка: английский

Режиссер: Мэл Гибсон / Mel Gibson
В ролях: Эндрю Гарфилд, Ричард Пирос, Джейкоб Уорнер, Мило Гибсон, Дарси Брайс, Роман Геррьеро, Джеймс Лагтон, Касия Стелмах, Хьюго Уивинг, Рэйчел Гриффитс, Сэм Уортингтон, Тереза Палмер, Винс Вон

Описание: Медик американской армии времён Второй мировой войны Дезмонд Досс, который служил во время битвы за Окинаву, отказывается убивать людей и становится первым идейным уклонистом в американской истории, удостоенным Медали Почёта.

imdb | kinopoisk | Сэмпл

Тип релиза: UHD BDRemux 2160p [Hacksaw Ridge 2016 2160p UHD Blu-ray HEVC TrueHD 7.1]
Контейнер: MKV
Видео: MPEG-H HEVC Video / 66566 kbps / 3840x2160 / 23.976 fps / 16:9 / Main 10 Profile 5.1 High / 4:2:0 / 10 bits / HDR / BT.2020 /
Аудио 1: Russian AC3 / 5.1 / 48 kHz / 384 kbps / 16 bits |Dub, iTunes|
Аудио 2: Russian DTS-HD Master Audio / 7.1 / 48 kHz / 4505 kbps / 24-bit (DTS Core: 5.1 / 48 kHz / 1509 kbps / 24-bit) |Dub, Custom|
Аудио 3: Russian AC3 / 5.1 / 48 kHz / 448 kbps / 16 bits |С. Визгунов|
Аудио 4: Russian AC3 / 5.1 / 48 kHz / 448 kbps / 16 bits |Д. Есарев|
Аудио 5: Russian DTS-HD Master Audio / 7.1 / 48 kHz / 4080 kbps / 24-bit (DTS Core: 5.1 / 48 kHz / 1509 kbps / 24-bit) |Ю. Сербин|
Аудио 6: English Dolby Atmos/TrueHD Audio / 7.1-Atmos / 48 kHz / 4944 kbps / 24-bit |original|
Аудио 7: English AC3 Core: 5.1-EX / 48 kHz / 640 kbps |original|
Формат субтитров: softsub [SRT]
MediaInfo
Код:
Общее
Уникальный идентификатор                 : 217933336109204114528371261465722753859 (0xA3F46F0CD0A8530E1A43FBBD7CB21343)
Полное имя                               : H:\UHD\По соображениям совести.2016.UHD.Blu-Ray.Remux.2160p.mkv
Формат                                   : Matroska
Версия формата                           : Version 4 / Version 2
Размер файла                             : 79,3 Гбайт
Продолжительность                        : 2 ч. 19 м.
Режим общего битрейта                    : Переменный
Общий поток                              : 81,4 Мбит/сек
Дата кодирования                         : UTC 2018-08-27 15:26:19
Программа кодирования                    : mkvmerge v26.0.0 ('In The Game') 64-bit
Библиотека кодирования                   : libebml v1.3.6 + libmatroska v1.4.9
Attachments                              : poster.jpg
Видео
Идентификатор                            : 1
Формат                                   : HEVC
Формат/Информация                        : High Efficiency Video Coding
Коммерческое название                    : HDR10
Профиль формата                          : Main 10@L5.1@High
Идентификатор кодека                     : V_MPEGH/ISO/HEVC
Продолжительность                        : 2 ч. 19 м.
Битрейт                                  : 66,6 Мбит/сек
Ширина                                   : 3840 пикселей
Высота                                   : 2160 пикселей
Соотношение сторон                       : 16:9
Режим частоты кадров                     : Постоянный
Частота кадров                           : 23,976 (24000/1001) кадра/сек
Цветовое пространство                    : YUV
Субдискретизация насыщенности            : 4:2:0 (Type 2)
Битовая глубина                          : 10 бит
Бит/(Пиксели*Кадры)                      : 0.335
Размер потока                            : 64,8 Гбайт (82%)
Библиотека кодирования                   : ATEME Titan KFE 3.7.3 (4.7.3.1003)
Default                                  : Да
Forced                                   : Нет
Цветовой диапазон                        : Limited
Основные цвета                           : BT.2020
Характеристики трансфера                 : PQ
Коэффициенты матрицы                     : BT.2020 non-constant
MasteringDisplay_ColorPrimaries          : Display P3
MasteringDisplay_Luminance               : min: 0.0000 cd/m2, max: 1000 cd/m2
MaxCLL                                   : 1000 cd/m2
MaxFALL                                  : 321 cd/m2
Аудио #1
Идентификатор                            : 2
Формат                                   : AC-3
Формат/Информация                        : Audio Coding 3
Идентификатор кодека                     : A_AC3
Продолжительность                        : 2 ч. 19 м.
Вид битрейта                             : Постоянный
Битрейт                                  : 384 Кбит/сек
Каналы                                   : 6 каналов
Расположение каналов                     : Front: L C R, Side: L R, LFE
Частота                                  : 48,0 КГц
Частота кадров                           : 31,250 кадров/сек (1536 SPF)
Битовая глубина                          : 16 бит
Метод сжатия                             : С потерями
Размер потока                            : 383 Мбайт (0%)
Заголовок                                : Dub, iTunes
Язык                                     : Russian
ServiceKind/String                       : Complete Main
Default                                  : Да
Forced                                   : Нет
Аудио #2
Идентификатор                            : 3
Формат                                   : DTS
Формат/Информация                        : Digital Theater Systems
Профиль формата                          : MA / Core
Идентификатор кодека                     : A_DTS
Продолжительность                        : 2 ч. 19 м.
Вид битрейта                             : Переменный / Постоянный
Битрейт                                  : 4505 Кбит/сек / 1509 Кбит/сек
Каналы                                   : 8 каналов / 6 каналов
Расположение каналов                     : Front: L C R, Side: L R, Back: L R, LFE / Front: L C R, Side: L R, LFE
Частота                                  : 48,0 КГц
Частота кадров                           : 93,750 кадра/сек (512 SPF)
Битовая глубина                          : 24 бит
Метод сжатия                             : Без потерь / Lossy
Размер потока                            : 4,38 Гбайт (6%)
Заголовок                                : Dub, Custom
Язык                                     : Russian
Default                                  : Нет
Forced                                   : Нет
Аудио #3
Идентификатор                            : 4
Формат                                   : AC-3
Формат/Информация                        : Audio Coding 3
Идентификатор кодека                     : A_AC3
Продолжительность                        : 2 ч. 19 м.
Вид битрейта                             : Постоянный
Битрейт                                  : 448 Кбит/сек
Каналы                                   : 6 каналов
Расположение каналов                     : Front: L C R, Side: L R, LFE
Частота                                  : 48,0 КГц
Частота кадров                           : 31,250 кадров/сек (1536 SPF)
Битовая глубина                          : 16 бит
Метод сжатия                             : С потерями
Размер потока                            : 446 Мбайт (1%)
Заголовок                                : С. Визгунов
Язык                                     : Russian
ServiceKind/String                       : Complete Main
Default                                  : Нет
Forced                                   : Нет
Аудио #4
Идентификатор                            : 5
Формат                                   : AC-3
Формат/Информация                        : Audio Coding 3
Идентификатор кодека                     : A_AC3
Продолжительность                        : 2 ч. 19 м.
Вид битрейта                             : Постоянный
Битрейт                                  : 448 Кбит/сек
Каналы                                   : 6 каналов
Расположение каналов                     : Front: L C R, Side: L R, LFE
Частота                                  : 48,0 КГц
Частота кадров                           : 31,250 кадров/сек (1536 SPF)
Битовая глубина                          : 16 бит
Метод сжатия                             : С потерями
Размер потока                            : 446 Мбайт (1%)
Заголовок                                : Д. Есарев
Язык                                     : Russian
ServiceKind/String                       : Complete Main
Default                                  : Нет
Forced                                   : Нет
Аудио #5
Идентификатор                            : 6
Формат                                   : DTS
Формат/Информация                        : Digital Theater Systems
Профиль формата                          : MA / Core
Идентификатор кодека                     : A_DTS
Продолжительность                        : 2 ч. 19 м.
Вид битрейта                             : Переменный / Постоянный
Битрейт                                  : 4080 Кбит/сек / 1509 Кбит/сек
Каналы                                   : 8 каналов / 6 каналов
Расположение каналов                     : Front: L C R, Side: L R, Back: L R, LFE / Front: L C R, Side: L R, LFE
Частота                                  : 48,0 КГц
Частота кадров                           : 93,750 кадра/сек (512 SPF)
Битовая глубина                          : 24 бит
Метод сжатия                             : Без потерь / Lossy
Размер потока                            : 3,97 Гбайт (5%)
Заголовок                                : Ю. Сербин
Язык                                     : Russian
Default                                  : Нет
Forced                                   : Нет
Аудио #6
Идентификатор                            : 7
Формат                                   : TrueHD
Профиль формата                          : TrueHD+Atmos / TrueHD
Идентификатор кодека                     : A_TRUEHD
Продолжительность                        : 2 ч. 19 м.
Вид битрейта                             : Переменный
Битрейт                                  : 4304 Кбит/сек
Максимальный битрейт                     : 8544 Кбит/сек
Каналы                                   : Object Based / 8 каналов
Расположение каналов                     : Object Based / Front: L C R, Side: L R, Back: L R, LFE
Частота                                  :  / 48,0 КГц
Частота кадров                           : 1200,000 кадров/сек (40 SPF)
Метод сжатия                             : Без потерь
Размер потока                            : 4,19 Гбайт (5%)
Язык                                     : English
Default                                  : Нет
Forced                                   : Нет
Аудио #7
Идентификатор                            : 8
Формат                                   : AC-3
Формат/Информация                        : Audio Coding 3
Идентификатор кодека                     : A_AC3
Продолжительность                        : 2 ч. 19 м.
Вид битрейта                             : Постоянный
Битрейт                                  : 640 Кбит/сек
Каналы                                   : 6 каналов
Расположение каналов                     : Front: L C R, Side: L R, LFE
Частота                                  : 48,0 КГц
Частота кадров                           : 31,250 кадров/сек (1536 SPF)
Битовая глубина                          : 16 бит
Метод сжатия                             : С потерями
Размер потока                            : 638 Мбайт (1%)
Язык                                     : English
ServiceKind/String                       : Complete Main
Default                                  : Нет
Forced                                   : Нет
Текст #1
Идентификатор                            : 9
Формат                                   : UTF-8
Идентификатор кодека                     : S_TEXT/UTF8
Идентификатор кодека/Информация          : UTF-8 Plain Text
Продолжительность                        : 2 ч. 12 м.
Битрейт                                  : 2 бит/сек
ElementCount                             : 45
Размер потока                            : 2,74 Кбайт (0%)
Заголовок                                : forced
Язык                                     : Russian
Default                                  : Да
Forced                                   : Нет
Текст #2
Идентификатор                            : 10
Формат                                   : UTF-8
Идентификатор кодека                     : S_TEXT/UTF8
Идентификатор кодека/Информация          : UTF-8 Plain Text
Продолжительность                        : 2 ч. 10 м.
Битрейт                                  : 75 бит/сек
ElementCount                             : 1350
Размер потока                            : 71,9 Кбайт (0%)
Заголовок                                : full - Dunadan
Язык                                     : Russian
Default                                  : Нет
Forced                                   : Нет
Текст #3
Идентификатор                            : 11
Формат                                   : UTF-8
Идентификатор кодека                     : S_TEXT/UTF8
Идентификатор кодека/Информация          : UTF-8 Plain Text
Продолжительность                        : 2 ч. 8 м.
Битрейт                                  : 48 бит/сек
ElementCount                             : 1342
Размер потока                            : 46,1 Кбайт (0%)
Заголовок                                : full
Язык                                     : English
Default                                  : Нет
Forced                                   : Нет
Текст #4
Идентификатор                            : 12
Формат                                   : UTF-8
Идентификатор кодека                     : S_TEXT/UTF8
Идентификатор кодека/Информация          : UTF-8 Plain Text
Продолжительность                        : 2 ч. 9 м.
Битрейт                                  : 55 бит/сек
ElementCount                             : 1655
Размер потока                            : 53,2 Кбайт (0%)
Заголовок                                : SDH
Язык                                     : English
Default                                  : Нет
Forced                                   : Нет
Меню
00:00:00.000                             : en:00:00:00.000
00:09:18.767                             : en:00:09:18.767
00:18:41.996                             : en:00:18:41.996
00:26:34.510                             : en:00:26:34.510
00:33:00.562                             : en:00:33:00.562
00:40:04.152                             : en:00:40:04.152
00:50:07.213                             : en:00:50:07.213
00:57:01.543                             : en:00:57:01.543
01:04:21.649                             : en:01:04:21.649
01:17:50.207                             : en:01:17:50.207
01:23:58.700                             : en:01:23:58.700
01:31:21.726                             : en:01:31:21.726
01:39:02.812                             : en:01:39:02.812
01:46:07.570                             : en:01:46:07.570
01:59:48.306                             : en:01:59:48.306
02:07:13.292                             : en:02:07:13.292
Скриншоты
Дополнительно
Цитата:
За дорожку С. Визгунова спасибо sitefed
Цитата:
Дорожка №2 взята с этой раздачи thx: Loud_Swir
Цитата:
Перевод Д. Есарева доступен благодаря пользователям igrok2012, Aniskin50, mv73, Shrooms, Pr0peLLer, Wa1ker, Star Dog, ZeDOK, shagrath88, Epiphone_the_beard, sswwiixx, Литти, RafL, Loki1982, Прохожий, mestereo2110, СерП
Работа со звуком - Переводман
Торрент-файл перезалит 26.08.2018. Добавлен перевод С. Визгунова, заменены русские субтитры
Зарегистрирован:
  • 27-Авг-18 22:08
  • Скачан: 689 раз

Скачать .torrent

198 KB

Тип: обычная
Статус: проверено
Размер: 79.26 GB  ·  magnet0CAA3930D1ED34A18AE67F6569B01DF775101337
  • Свернуть поддиректории
  • Развернуть
  • Переключить
  • Увел./умен. окно
загружается...

bot · 04-Янв-18 22:46 (спустя 1 час 9 мин.)

Тема была перенесена из форума Оформление раздач (Группа "Top Seed") в форум HD Video
arxivariys
 

vilth___

Стаж: 10 лет 1 месяц

Сообщений: 97

vilth___ · 04-Янв-18 22:56 (спустя 1 час 19 мин.)

arxivariys2 и 3ю части паука вы будете делать?

arxivariys

Top Best

Стаж: 9 лет 2 месяца

Сообщений: 1296

flag

arxivariys · 04-Янв-18 23:08 (спустя 11 мин.)

vilth___ писал(а):
74541813arxivariys2 и 3ю части паука вы будете делать?
на данный момент не планирую

selamidrot

Стаж: 10 лет

Сообщений: 248

flag

selamidrot · 05-Янв-18 00:19 (спустя 1 час 11 мин.)

Относя обратно рядового Райна?
Поглядим-с, спасибо

dan241UA

Стаж: 9 лет 9 месяцев

Сообщений: 3

flag

dan241UA · 05-Янв-18 20:22 (спустя 20 часов)

прикольный фильм, для любителей войны пойдет!

G00ba

RG Orient Extreme

Стаж: 7 лет 4 месяца

Сообщений: 4762

G00ba · 11-Фев-18 22:38 (спустя 1 месяц 6 дней)

arxivariys писал(а):
74541386Субтитры: русские
плохая синхронизация и есть место без перевода. в сети есть сабы получше.
# сомнительно

Мисс Таггарт, кто такой Джон Голт? (E1 & E2)Когда миссия подходит к концу - даже беспредел допускается

Остудин Евгений Сергеевич

Стаж: 5 лет 4 месяца

Сообщений: 2

flag

Остудин Евгений Сергеевич · 07-Авг-18 21:19 (спустя 5 месяцев 23 дня)

Первый час кинца болтовня ни о чём.
Второй час - Эпичный мясной цирк-шапито "Пиндосы против японской саранчи" в слоу мо.

arxivariys

Top Best

Стаж: 9 лет 2 месяца

Сообщений: 1296

flag

arxivariys · 27-Авг-18 22:19 (спустя 20 дней)

Торрент-файл перезалит 26.08.2018. Добавлен перевод С. Визгунова, заменены русские субтитры

пойман заруку

Хранитель

Стаж: 10 лет 1 месяц

Сообщений: 70

flag

пойман заруку · 22-Окт-18 20:20 (спустя 1 месяц 25 дней, ред. 22-Окт-18 20:20)

Удивительно, но, по непонятным мне причинам, это первый 4К, который не потянул проц. В чем загвоздка? Даже в "Валериан и город тысячи планет" в 4К проц не был загружен в пик на 90%...
Проблема решена. Плеер не поддерживал программное ускорение. с VLC таких проблем не возникло
i5-3470 CPU @ 3.20GHz 3.60GHz
GeForse GTX 1060 6gb
ОЗУ 16ГБ
240 gb SSD 6 TB HDD
Win 10 Pro
 
All rights reserved © 2017-2018
Loading...
Error