Разочарование / Disenchantment / Сезон: 1 / Серии: 1-10 из 10 (Мэтт Грейнинг) [2018, США, Мультфильм, фэнтези, комедия, приключения, WEBRip] MVO (AlexFilm)

Статистика раздачи
Размер:  5.5 GB   |   Зарегистрирован:  2 месяца 22 дня   |   .torrent скачан:  2,279 раз
Сиды:  36   Личи:  10
Автор
Сообщение

ShenRau

Top Loader 01* 100GB

Стаж: 1 год 10 месяцев

Сообщений: 2443

flag

ShenRau · 24-Авг-18 10:31 (2 месяца 24 дня назад, ред. 26-Авг-18 16:51)

 

Разочарование / Disenchantment
Страна: США
Жанр: Мультфильм, фэнтези, комедия, приключения
Продолжительность серии: 00:26:00
Год выпуска: 2018
Перевод: Профессиональный (многоголосый закадровый) AlexFilm
Русские субтитры: нет
Режиссёр: Мэтт Грейнинг
Роли озвучивали: Эрик Андре, Мэтт Берри, Джон Ди Маджио, Нат Факсон, Ноэль Филдинг, Дэвид Херман, Эбби Джейкобсон, Морис ЛаМарш, Тресс МакНилл, Билли Уэст
Перевод: Александра Елизарова
Монтаж и сведение звука: Михаил Федосеев
Роли озвучивали: Алёна Левичева, Екатерина Муравицкая, Константин Федосеев, Кирилл Патрино, Леонид Дмитриев, Михаил Федосеев
Описание: Действие разворачивается в Средневековье в королевстве Дримландия, где живёт юная принцесса-алкоголичка Бин. Отказавшись выходить замуж, Бин отправляется в путешествие по стране в компании эльфа и демона. По дороге трио встретит множество фантастических тварей и дураков людского происхождения.
Доп. информация: без рекламы

Качество: WEBRip
Формат: AVI
Видео: XviD, 720х400, 23.976 fps, ~2000 kbps avg, 0.29 bit/pixel
Аудио 1: Rus: AC3, 48 kHz, 6 ch, 384 kbps
Аудио 2: Eng: AC3, 48 kHz, 6 ch, 384 kbps
Субтитры: нет
Список серий
1 Принцесса, Эльф и Демон заходят в бар
2 Для кого хрюкает свинья
3 Принцесса тьмы
4 Резня в замке
5 Быстрее, принцесса! Убей! Убей!
6 Болота и последствия
7 Любовь - это нежное буйство
Подробные технические данные
General
Complete name : E:\Disenchantment\Disenchantment.s01e01.avi
Format : AVI
Format/Info : Audio Video Interleave
File size : 727 MiB
Duration : 36mn 10s
Overall bit rate : 2 811 Kbps
Writing application : VirtualDubMod 1.5.10.2 (build 2540/release)
Writing library : VirtualDubMod build 2540/release
Video
ID : 0
Format : MPEG-4 Visual
Format profile : Advanced Simple@L5
Format settings, BVOP : 1
Format settings, QPel : No
Format settings, GMC : No warppoints
Format settings, Matrix : Custom
Codec ID : XVID
Codec ID/Hint : XviD
Duration : 36mn 10s
Bit rate : 2 029 Kbps
Width : 720 pixels
Height : 400 pixels
Display aspect ratio : 16:9
Frame rate : 23.976 fps
Color space : YUV
Chroma subsampling : 4:2:0
Bit depth : 8 bits
Scan type : Progressive
Compression mode : Lossy
Bits/(Pixel*Frame) : 0.294
Stream size : 525 MiB (72%)
Writing library : XviD 73
Audio #1
ID : 1
Format : AC-3
Format/Info : Audio Coding 3
Mode extension : CM (complete main)
Format settings, Endianness : Big
Codec ID : 2000
Duration : 36mn 10s
Bit rate mode : Constant
Bit rate : 384 Kbps
Channel(s) : 6 channels
Channel positions : Front: L C R, Side: L R, LFE
Sampling rate : 48.0 KHz
Compression mode : Lossy
Stream size : 99.4 MiB (14%)
Alignment : Split accross interleaves
Interleave, duration : 42 ms (1.00 video frame)
Interleave, preload duration : 500 ms
Audio #2
ID : 2
Format : AC-3
Format/Info : Audio Coding 3
Mode extension : CM (complete main)
Format settings, Endianness : Big
Codec ID : 2000
Duration : 36mn 10s
Bit rate mode : Constant
Bit rate : 384 Kbps
Channel(s) : 6 channels
Channel positions : Front: L C R, Side: L R, LFE
Sampling rate : 48.0 KHz
Compression mode : Lossy
Stream size : 99.4 MiB (14%)
Alignment : Split accross interleaves
Interleave, duration : 42 ms (1.00 video frame)
Interleave, preload duration : 500 ms
Скриншоты
Предыдущие и альтернативные раздачи
Зарегистрирован:
  • 26-Авг-18 16:45
  • Скачан: 2,279 раз

Скачать .torrent

29 KB

Тип: обычная
Статус: проверено
Размер: 5.5 GB  ·  magnetD1EDF3AA96CFA5A1E17274148071B6E03E4856D3
  • Свернуть поддиректории
  • Развернуть
  • Переключить
  • Увел./умен. окно
загружается...

apextw

Стаж: 9 лет 3 месяца

Сообщений: 135

flag

apextw · 25-Авг-18 18:15 (спустя 1 день 7 часов)

спасибо!

ShenRau

Top Loader 01* 100GB

Стаж: 1 год 10 месяцев

Сообщений: 2443

flag

ShenRau · 26-Авг-18 16:50 (спустя 22 часа)

+ 8-10 серии.

Unicom

Стаж: 11 лет 3 месяца

Сообщений: 68

flag

Unicom · 30-Авг-18 00:27 (спустя 3 дня)

третья серия битая. ничем не воспроизводится

ShenRau

Top Loader 01* 100GB

Стаж: 1 год 10 месяцев

Сообщений: 2443

flag

ShenRau · 30-Авг-18 08:05 (спустя 7 часов)

Unicom писал(а):
75881008третья серия битая. ничем не воспроизводится
Третья серия в порядке, проблема с твоей стороны. Перехешируй торрент, файл мог скачатся не полностью.

Zuname2008

Стаж: 10 лет

Сообщений: 177

flag

Zuname2008 · 04-Окт-18 12:08 (спустя 1 месяц 5 дней)

"Разочарованием" не разочарован!
Грёнинг - гений.

Большой Кол

Стаж: 10 лет 6 месяцев

Сообщений: 309

flag

Большой Кол · 19-Окт-18 22:41 (спустя 15 дней)

Класс, посмотрел на одном дыхании.
Я водочки выпью, вам ведь не жалко
 
All rights reserved © 2017-2018
Loading...
Error