Владыка Вермилиона: Король багрового лотоса / Lord of Vermilion: Guren no Ou [TV] [12 из 12] [Без хардсаба] [RUS(int), JAP+SUB] [2018, приключения, фэнтези, WEBRip] [HWP]

Статистика раздачи
Размер:  3.33 GB   |   Зарегистрирован:  28 дней   |   .torrent скачан:  123 раза
Сиды:  7
Автор
Сообщение

dimdimich

Top Seed 03* 160r

Стаж: 12 лет 2 месяца

Сообщений: 814

flag

dimdimich · 21-Окт-18 08:18 (28 дней назад)

 

Владыка Вермилиона: Король багрового лотоса / Lord of Vermilion: Guren no Ou
Страна: Япония
Год выпуска: 2018
Жанр: приключения, фэнтези
Тип: TV
Продолжительность: 12 эп., ~24 мин., эпизод
Режиссер: Суганума Эйдзи
Студия: asread, Tear-Studio
Описание:
Токио, 29-е января 2030-го года. В окрестностях Токио возникает высокочастотный резонанс, а город окутывает красный туман. Те, кто слышат этот звук, люди и животные, теряют сознание. В Токио всё перекрывают, полагая, что туман несёт неизвестный вирус, вызывающий эпидемию. Однако через шесть дней после инцидента люди просыпаются, будто ничего и не было. После этого перекрытые кварталы Токио постепенно возобновляют работу. Тем не менее, из-за высокочастотного резонанса начинают происходить некоторые причудливые события, и людей окружает более великая тайна. Между тем, молодые люди освобождают силу, скрытую в их крови, осознавая что они являются "сосудами крови мудрости". Вместе, ведомые чем-то неизвестным, они встречаются, общаются и сталкиваются с неизбежным кругом судьбы, жертвуя своей жизнью.
Доп. информация:
Релиз GSGroup

Качество: WEBRip
Тип релиза: Без хардсаба
Формат видео: AVI
Релиз/Автор рипа: gsg
Видео: XviD, 720x400, 23.976 fps, 1318 Kbps, 8 bits
Аудио 1: AC-3, 48 KHz, 192 Kbps, 2 channels Язык Русский (в составе контейнера) ; Озвучка: женская одноголосая: Persona99
Аудио 2: AC-3, 48 KHz, 192 Kbps, 2 channels Язык Японский ; Озвучка 2: оригинал
Субтитры: внешние srt, ass ; Перевод: Crunchyroll
Подробные тех. данные
General
Complete name : _E\Lord of Vermilion - Guren no Ou\Lord of Vermilion - Guren no Ou - 01 [Persona99](XviD 720x400 AC3).rus.jap.avi
Format : AVI
Format/Info : Audio Video Interleave
File size : 284 MiB
Duration : 23mn 10s
Overall bit rate : 1 716 Kbps
Writing application : VirtualDubMod 1.5.10.2 (build 2540/release)
Writing library : VirtualDubMod build 2540/release
Video
ID : 0
Format : MPEG-4 Visual
Format profile : Advanced Simple@L5
Format settings, BVOP : 2
Format settings, QPel : No
Format settings, GMC : No warppoints
Format settings, Matrix : Default (H.263)
Codec ID : XVID
Codec ID/Hint : XviD
Duration : 23mn 10s
Bit rate : 1 318 Kbps
Width : 720 pixels
Height : 400 pixels
Display aspect ratio : 16:9
Frame rate : 23.976 fps
Color space : YUV
Chroma subsampling : 4:2:0
Bit depth : 8 bits
Scan type : Progressive
Compression mode : Lossy
Bits/(Pixel*Frame) : 0.191
Stream size : 218 MiB (77%)
Writing library : XviD 67
Audio #1
ID : 1
Format : AC-3
Format/Info : Audio Coding 3
Mode extension : CM (complete main)
Format settings, Endianness : Big
Codec ID : 2000
Duration : 23mn 10s
Bit rate mode : Constant
Bit rate : 192 Kbps
Channel(s) : 2 channels
Channel positions : Front: L R
Sampling rate : 48.0 KHz
Compression mode : Lossy
Stream size : 31.8 MiB (11%)
Alignment : Split accross interleaves
Interleave, duration : 42 ms (1.00 video frame)
Interleave, preload duration : 500 ms
Audio #2
ID : 2
Format : AC-3
Format/Info : Audio Coding 3
Mode extension : CM (complete main)
Format settings, Endianness : Big
Codec ID : 2000
Duration : 23mn 10s
Bit rate mode : Constant
Bit rate : 192 Kbps
Channel(s) : 2 channels
Channel positions : Front: L R
Sampling rate : 48.0 KHz
Compression mode : Lossy
Stream size : 31.8 MiB (11%)
Alignment : Split accross interleaves
Interleave, duration : 42 ms (1.00 video frame)
Interleave, preload duration : 500 ms
Список эпизодов
01. Our Lives Are the Debt We Pay Our Enemies
02. You Don't Who I Am Yet
03. Who Set Fire to an Old Conflict?
04. Why Do I Love My Despised Enemy
05. Today's Dark Destiny Will Hang Over the Future
06. Bright Lights Suit a Dark Heart
07. Please Join Our Hands With the Holy Words
08. Excruciating Sadness Can Be Cured by Other Anguish
09. Sometimes People Become Cheerful When Faced With Death
10. My Soul Calls My Name
11. The Delicate Flower Bud is Both Medicine and Poison
12. The World is Vast and Infinite
Скриншоты

Семпл:
Зарегистрирован:
  • 21-Окт-18 08:18
  • Скачан: 123 раза

Скачать .torrent

21 KB

Тип: обычная
Статус: проверено
Размер: 3.33 GB  ·  magnet15CFDAA989281CED9F3DD3EAD87D622B6E51C16E
  • Свернуть поддиректории
  • Развернуть
  • Переключить
  • Увел./умен. окно
загружается...



«Повода нет, чтоб веселиться,Повод только пойти и напиться.»
 
All rights reserved © 2017-2018
Loading...
Error