Смерть ей к лицу / Death Becomes Her (Роберт Земекис / Robert Zemeckis) [1992, США, фантастика, комедия, BDRip 720p] 6 MVO + DUB + 2 AVO + Ukr + Sub Rus, Eng + Original Eng

Статистика раздачи
Размер:  11.03 GB   |   Зарегистрирован:  6 дней   |   .torrent скачан:  197 раз
Сиды:  5
Автор
Сообщение

LION1234

Top Seed 03* 160r

Стаж: 8 лет 11 месяцев

Сообщений: 588

flag

LION1234 · 09-Дек-17 15:24 (1 год назад, ред. 07-Дек-18 12:20)

 

Смерть ей к лицу / Death Becomes Her
Страна: США
Студия: Universal Pictures
Жанр: фантастика, комедия
Год выпуска: 1992
Продолжительность: 01:43:22

Перевод 1, 3-7: Профессиональный (многоголосый закадровый)
Перевод 2: Профессиональный (дублированный)
Перевод 8-9: Авторский одноголосный
Перевод 10: Профессиональный (многоголосый закадровый) Украинский
Субтитры: русские, английские
Оригинальная аудио дорожка: английская

Режиссер: Роберт Земекис / Robert Zemeckis

В ролях: Мэрил Стрип, Брюс Уиллис, Голди Хоун, Изабелла Росселлини, Иэн Огилви, Адам Сторке, Нэнси Фиш, Алайна Рид Холл, Мишель Джонсон, Мэри Эллен Трейнор, Уильям Френкфазер, Джон Ингл, Клемент Сейнт-Джордж, Петреа Бурхард, Джим Джэнсен, Мими Кеннеди, Пауло Тока, Марк Девенпорт, Томас Мёрфи, Майкл Миллс

Описание: Эликсир вечной молодости! Сколько женщин мечтают о нем! О нем мечтали и бродвейская звезда Мэдлин Эштон, и Хелен Шарп, у которой эта коварная Мэдлин отбила жениха Эрнеста Мэнвилла, гениального врача-специалиста по пластическим операциям.
Прошли годы, и изрядно полинявшие и уставшие друг от друга дамочки, обращаются за чудотворным снадобьем к некоей колдунье. Итак, эликсир выпит, кожа посвежела, груди подтянулись, но скоро качество лекарства будет проверено… смертью.

Доп. информация: Сохранены главы с исходного Blu-Ray Remux 1080p.
DTS дорожки №6-7 собраны с чистого голоса и оригинальной дороги igorella87 - спасибо за работу.
Перевод Горчакова с 1:03:41 по 1:19:42 не сохранился, сделана вставка из Михалева.

Сэмпл: https://yadi.sk/i/jwRsbywxyknm4A

Тип релиза: BDRip 720p
Контейнер: MKV
Видео кодек: H.264
Аудио кодек: DTS, AC-3
Видео: MPEG4/AVC, 1.85:1, 23.976 (24000/1001) FPS, 1280x694p, 8914 kb/s
Аудио 1: RUS / AC-3, 48.0 kHz, 2.0, 192 kb/s | профессиональный многоголосый (Неоклассика)
Аудио 2: RUS / AC-3, 48.0 kHz, 2.0, 192 kb/s | профессиональный (дублированный) SDI Media
Аудио 3: RUS / AC-3, 48.0 kHz, 2.0, 192 kb/s | профессиональный многоголосый (FDV)
Аудио 4: RUS / AC-3, 48.0 kHz, 2.0, 192 kb/s | профессиональный многоголосый (Премьер Видео Фильм)
Аудио 5: RUS / AC-3, 48.0 kHz, 2.0, 192 kb/s | профессиональный многоголосый (НТВ+)
Аудио 6: RUS / AC-3, 48.0 kHz, 2.0, 192 kb/s | профессиональный многоголосый SDI Media
Аудио 7: RUS / AC-3, 48.0 kHz, 2.0, 192 kb/s | профессиональный многоголосый (ОРТ)
Аудио 8: RUS / DTS, 48.0 kHz, 5.1, 1509 kb/s | авторский одноголосный (Михалёв)
Аудио 9: RUS / DTS, 48.0 kHz, 5.1, 1509 kb/s | авторский одноголосный (Горчаков)
Аудио 10: UKR / AC-3, 48.0 kHz, 2.0, 192 kb/s | профессиональный многоголосый (ТРК Украина)
Аудио 11: ENG / DTS, 48.0 kHz, 5.1, 1509 kb/s | оригинал
Формат субтитров: softsub (SRT)
Релиз:
MediaInfo
x264
x264 [info]: profile High, level 4.1
x264 [info]: frame I:980 Avg QP:16.05 size:136253
x264 [info]: frame P:27271 Avg QP:17.42 size: 77139
x264 [info]: frame B:120447 Avg QP:19.65 size: 40694
x264 [info]: consecutive B-frames: 1.1% 0.7% 2.6% 10.4% 12.9% 59.5% 6.0% 1.9% 1.8% 0.9% 0.7% 0.7% 0.3% 0.5%
Формат : Matroska
Версия формата : Version 2
Размер файла : 11,0 Гбайт
Продолжительность : 1 ч. 43 м.
Общий поток : 15,3 Мбит/сек
Название фильма : Смерть ей к лицу / Death Becomes Her / 1992 - rip from GOSTRACKER
Дата кодирования : UTC 2017-12-16 08:52:42
Программа кодирования : mkvmerge v7.6.0 ('Garden of Dreams') 32bit built on Feb 11 2015 00:18:47
Библиотека кодирования : libebml v1.3.1 + libmatroska v1.4.2
Обложка : Yes
Attachments : cover.jpg
Видео
Идентификатор : 1
Формат : AVC
Формат/Информация : Advanced Video Codec
Профиль формата : High@L4.1
Настройки формата : CABAC / 9 Ref Frames
Параметр CABAC формата : Да
Параметр RefFrames формата : 9 кадров
Идентификатор кодека : V_MPEG4/ISO/AVC
Продолжительность : 1 ч. 43 м.
Битрейт : 8914 Кбит/сек
Ширина : 1280 пикселей
Высота : 694 пикселя
Соотношение сторон : 1,85:1
Режим частоты кадров : Постоянный
Частота кадров : 23,976 (24000/1001) кадра/сек
Цветовое пространство : YUV
Субдискретизация насыщенности : 4:2:0
Битовая глубина : 8 бит
Тип развёртки : Прогрессивная
Бит/(Пиксели*Кадры) : 0.419
Размер потока : 6,44 Гбайт (58%)
Заголовок : Смерть ей к лицу / Death Becomes Her / 1992 - ripped by <<LION1234>>
Библиотека кодирования : x264 core 152 r2851 ba24899
Настройки программы : cabac=1 / ref=9 / deblock=1:-3:-3 / analyse=0x3:0x113 / me=umh / subme=10 / psy=1 / psy_rd=0.85:0.02 / mixed_ref=1 / me_range=24 / chroma_me=1 / trellis=2 / 8x8dct=1 / cqm=0 / deadzone=21,11 / fast_pskip=1 / chroma_qp_offset=-3 / threads=6 / lookahead_threads=1 / sliced_threads=0 / nr=0 / decimate=0 / interlaced=0 / bluray_compat=0 / constrained_intra=0 / bframes=13 / b_pyramid=2 / b_adapt=2 / b_bias=0 / direct=1 / weightb=1 / open_gop=0 / weightp=2 / keyint=250 / keyint_min=23 / scenecut=40 / intra_refresh=0 / rc_lookahead=60 / rc=crf / mbtree=0 / crf=16.6 / qcomp=0.61 / qpmin=0 / qpmax=69 / qpstep=4 / vbv_maxrate=62500 / vbv_bufsize=78125 / crf_max=0.0 / nal_hrd=none / filler=0 / ip_ratio=1.40 / pb_ratio=1.30 / aq=1:0.78
Default : Да
Forced : Нет
Statistics Tags Issue : mkvmerge v18.0.0 ('Apricity') 64-bit 2017-12-05 17:14:41 / mkvmerge v7.6.0 ('Garden of Dreams') 32bit built on Feb 11 2015 00:18:47 2017-12-16 08:52:42
FromStats_BitRate : 9208198
FromStats_Duration : 01:43:21.946000000
FromStats_FrameCount : 148698
FromStats_StreamSize : 7138593884
Аудио #1
Идентификатор : 2
Формат : AC-3
Формат/Информация : Audio Coding 3
Идентификатор кодека : A_AC3
Продолжительность : 1 ч. 43 м.
Вид битрейта : Постоянный
Битрейт : 192 Кбит/сек
Каналы : 2 канала
Расположение каналов : Front: L R
Частота : 48,0 КГц
Частота кадров : 31,250 кадров/сек (1536 SPF)
Битовая глубина : 16 бит
Метод сжатия : С потерями
Размер потока : 142 Мбайт (1%)
Заголовок : многоголосый (Неоклассика)
Язык : Russian
ServiceKind/String : Complete Main
Default : Да
Forced : Нет
Аудио #2
Идентификатор : 3
Формат : AC-3
Формат/Информация : Audio Coding 3
Идентификатор кодека : A_AC3
Продолжительность : 1 ч. 43 м.
Вид битрейта : Постоянный
Битрейт : 192 Кбит/сек
Каналы : 2 канала
Расположение каналов : Front: L R
Частота : 48,0 КГц
Частота кадров : 31,250 кадров/сек (1536 SPF)
Битовая глубина : 16 бит
Метод сжатия : С потерями
Размер потока : 142 Мбайт (1%)
Заголовок : Профессиональный (дублированный) SDI Media
Язык : Russian
ServiceKind/String : Complete Main
Default : Нет
Forced : Нет
Аудио #3
Идентификатор : 4
Формат : AC-3
Формат/Информация : Audio Coding 3
Идентификатор кодека : A_AC3
Продолжительность : 1 ч. 43 м.
Вид битрейта : Постоянный
Битрейт : 192 Кбит/сек
Каналы : 2 канала
Расположение каналов : Front: L R
Частота : 48,0 КГц
Частота кадров : 31,250 кадров/сек (1536 SPF)
Битовая глубина : 16 бит
Метод сжатия : С потерями
Размер потока : 142 Мбайт (1%)
Заголовок : многоголосый (FDV)
Язык : Russian
ServiceKind/String : Complete Main
Default : Нет
Forced : Нет
Аудио #4
Идентификатор : 5
Формат : AC-3
Формат/Информация : Audio Coding 3
Идентификатор кодека : A_AC3
Продолжительность : 1 ч. 43 м.
Вид битрейта : Постоянный
Битрейт : 192 Кбит/сек
Каналы : 2 канала
Расположение каналов : Front: L R
Частота : 48,0 КГц
Частота кадров : 31,250 кадров/сек (1536 SPF)
Битовая глубина : 16 бит
Метод сжатия : С потерями
Размер потока : 142 Мбайт (1%)
Заголовок : многоголосый (Премьер Видео Фильм)
Язык : Russian
ServiceKind/String : Complete Main
Default : Нет
Forced : Нет
Аудио #5
Идентификатор : 6
Формат : AC-3
Формат/Информация : Audio Coding 3
Идентификатор кодека : A_AC3
Продолжительность : 1 ч. 43 м.
Вид битрейта : Постоянный
Битрейт : 192 Кбит/сек
Каналы : 2 канала
Расположение каналов : Front: L R
Частота : 48,0 КГц
Частота кадров : 31,250 кадров/сек (1536 SPF)
Битовая глубина : 16 бит
Метод сжатия : С потерями
Размер потока : 142 Мбайт (1%)
Заголовок : многоголосый (НТВ+)
Язык : Russian
ServiceKind/String : Complete Main
Default : Нет
Forced : Нет
Аудио #6
Идентификатор : 7
Формат : AC-3
Формат/Информация : Audio Coding 3
Идентификатор кодека : A_AC3
Продолжительность : 1 ч. 43 м.
Вид битрейта : Постоянный
Битрейт : 192 Кбит/сек
Каналы : 2 канала
Расположение каналов : Front: L R
Частота : 48,0 КГц
Частота кадров : 31,250 кадров/сек (1536 SPF)
Битовая глубина : 16 бит
Метод сжатия : С потерями
Размер потока : 142 Мбайт (1%)
Заголовок : Профессиональный (многоголосый закадровый) SDI Media
Язык : Russian
ServiceKind/String : Complete Main
Default : Нет
Forced : Нет
Аудио #7
Идентификатор : 8
Формат : AC-3
Формат/Информация : Audio Coding 3
Идентификатор кодека : A_AC3
Продолжительность : 1 ч. 43 м.
Вид битрейта : Постоянный
Битрейт : 192 Кбит/сек
Каналы : 2 канала
Расположение каналов : Front: L R
Частота : 48,0 КГц
Частота кадров : 31,250 кадров/сек (1536 SPF)
Битовая глубина : 16 бит
Метод сжатия : С потерями
Размер потока : 142 Мбайт (1%)
Заголовок : многоголосый (ОРТ)
Язык : Russian
ServiceKind/String : Complete Main
Default : Нет
Forced : Нет
Аудио #8
Идентификатор : 9
Формат : DTS
Формат/Информация : Digital Theater Systems
Идентификатор кодека : A_DTS
Продолжительность : 1 ч. 43 м.
Вид битрейта : Постоянный
Битрейт : 1509 Кбит/сек
Каналы : 6 каналов
Расположение каналов : Front: L C R, Side: L R, LFE
Частота : 48,0 КГц
Частота кадров : 93,750 кадра/сек (512 SPF)
Битовая глубина : 24 бит
Метод сжатия : С потерями
Размер потока : 1,09 Гбайт (10%)
Заголовок : одноголосый (Михалёв)
Язык : Russian
Default : Нет
Forced : Нет
Аудио #9
Идентификатор : 10
Формат : DTS
Формат/Информация : Digital Theater Systems
Идентификатор кодека : A_DTS
Продолжительность : 1 ч. 43 м.
Вид битрейта : Постоянный
Битрейт : 1509 Кбит/сек
Каналы : 6 каналов
Расположение каналов : Front: L C R, Side: L R, LFE
Частота : 48,0 КГц
Частота кадров : 93,750 кадра/сек (512 SPF)
Битовая глубина : 24 бит
Метод сжатия : С потерями
Размер потока : 1,09 Гбайт (10%)
Заголовок : одноголосый (Горчаков)
Язык : Russian
Default : Нет
Forced : Нет
Аудио #10
Идентификатор : 11
Формат : AC-3
Формат/Информация : Audio Coding 3
Идентификатор кодека : A_AC3
Продолжительность : 1 ч. 43 м.
Вид битрейта : Постоянный
Битрейт : 192 Кбит/сек
Каналы : 2 канала
Расположение каналов : Front: L R
Частота : 48,0 КГц
Частота кадров : 31,250 кадров/сек (1536 SPF)
Битовая глубина : 16 бит
Метод сжатия : С потерями
Размер потока : 142 Мбайт (1%)
Заголовок : многоголосый (ТРК Украина)
Язык : Ukrainian
ServiceKind/String : Complete Main
Default : Нет
Forced : Нет
Аудио #11
Идентификатор : 12
Формат : DTS
Формат/Информация : Digital Theater Systems
Идентификатор кодека : A_DTS
Продолжительность : 1 ч. 43 м.
Вид битрейта : Постоянный
Битрейт : 1509 Кбит/сек
Каналы : 6 каналов
Расположение каналов : Front: L C R, Side: L R, LFE
Частота : 48,0 КГц
Частота кадров : 93,750 кадра/сек (512 SPF)
Битовая глубина : 24 бит
Метод сжатия : С потерями
Размер потока : 1,09 Гбайт (10%)
Заголовок : оригинал
Язык : English
Default : Нет
Forced : Нет
Текст #1
Идентификатор : 13
Формат : UTF-8
Идентификатор кодека : S_TEXT/UTF8
Идентификатор кодека/Информация : UTF-8 Plain Text
Заголовок : русские
Язык : Russian
Default : Нет
Forced : Нет
Текст #2
Идентификатор : 14
Формат : UTF-8
Идентификатор кодека : S_TEXT/UTF8
Идентификатор кодека/Информация : UTF-8 Plain Text
Заголовок : английские
Язык : English
Default : Нет
Forced : Нет
Меню
00:00:00.000 : :Main Titles: Broadway 1978
00:05:04.513 : :Mad and Hel
00:09:01.541 : :7 Years Later
00:12:35.380 : :Another 7 Years Later
00:20:40.739 : :Helen's Party
00:26:46.772 : :Secret Plots and Second Thoughts
00:30:20.110 : :Lisle
00:47:09.243 : :The Fall and Rise of Madeline Ashton
00:55:55.269 : :A Medical Miracle
01:05:51.489 : :Helen Has a Blast
01:09:55.858 : :Gut Reactions
01:15:40.953 : :Touch-Ups
01:25:01.888 : :The Party
01:32:54.402 : :37 Years Later
01:36:13.226 : :Going to Pieces
01:37:35.600 : :End Titles
Скриншоты
Сравнение с исодником Blu-Ray Remux (1080p)
ComparSOURCE------------------------------------------LION1234
Зарегистрирован:
  • 07-Дек-18 12:20
  • Скачан: 197 раз

Скачать .torrent

28 KB

Тип: обычная
Статус: проверено
Размер: 11.03 GB  ·  magnet72B4D6087F75230B7550F8148B328EDEEA860173
  • Свернуть поддиректории
  • Развернуть
  • Переключить
  • Увел./умен. окно
загружается...

Dictum factum — «Сказано — Сделано»

arxivariys

Top Best

Стаж: 9 лет 3 месяца

Сообщений: 1294

flag

arxivariys · 10-Дек-17 01:30 (спустя 10 часов)

Добавить бы еще пару дорог http://GOSTRACKER.XYZ/viewtopic.php?t=5399206

LION1234

Top Seed 03* 160r

Стаж: 8 лет 11 месяцев

Сообщений: 588

flag

LION1234 · 11-Дек-17 11:43 (спустя 1 день 10 часов)

arxivariys писал(а):
Добавить бы еще пару дорог
Вы про SDI Media?

Dictum factum — «Сказано — Сделано»

arxivariys

Top Best

Стаж: 9 лет 3 месяца

Сообщений: 1294

flag

arxivariys · 11-Дек-17 18:37 (спустя 6 часов)

LION1234 писал(а):
74398912
arxivariys писал(а):
Добавить бы еще пару дорог
Вы про SDI Media?
ага

LION1234

Top Seed 03* 160r

Стаж: 8 лет 11 месяцев

Сообщений: 588

flag

LION1234 · 16-Дек-17 15:53 (спустя 4 дня, ред. 16-Дек-17 15:53)

arxivariys писал(а):
Добавить бы еще пару дорог
Добавил.
Торрент перезалил.
По прозьбе уважаемого arxivariys добавил две дорожки от SDI Media.
Дорожка от Премьер Видео Фильм не важного качества. Добавил для полноты (в раздаче) она такаяже.
Заменил сэмпл, обновил данные медиа-инфо, исправил заголовок.

Dictum factum — «Сказано — Сделано»

mfa5

Стаж: 10 лет 6 месяцев

Сообщений: 138

mfa5 · 14-Мар-18 05:13 (спустя 2 месяца 28 дней)

Рип меньшего размера не планируется?

theatreofftragedy

Стаж: 9 лет 7 месяцев

Сообщений: 100

theatreofftragedy · 08-Сен-18 22:03 (спустя 5 месяцев 25 дней)

капец щас токо узнал шо
это брюс вилис
ваще не узнать с усами и волосами
а тем более не в боевике
Death Metal,Brutal Death,Black Metal,Doom Metal,Funeral Doom,Drone Doom,Sludge Doom,Stoner Doom,Gothic Metal,Dark Metal,Speed Metal,Thrash Metal,Groove Metal,Nu Metal,Alternative Metal,Power Metal,Progressive Metal,Folk Metal,Pagan Metal,Viking Metal,Celtic Metal,Symphonic Metal,Metalcore,Deathcore,Grindcore,Iidustrial Metal,Christian Metal,Avantgarde Metal !

LION1234

Top Seed 03* 160r

Стаж: 8 лет 11 месяцев

Сообщений: 588

flag

LION1234 · 29-Сен-18 17:58 (спустя 20 дней)

Обновил раздел "Сравнение".

Dictum factum — «Сказано — Сделано»

vladыка

Стаж: 11 лет 5 месяцев

Сообщений: 1135

flag

vladыка · 19-Окт-18 00:43 (спустя 19 дней)

удио 2: RUS / AC-3, 48.0 kHz, 2.0, 192 kb/s | профессиональный (дублированный) SDI Media Дубляж закадровый всё же
Я пришёл закачаться...
А теперь и раздаю...

mb08

Стаж: 10 лет 7 месяцев

Сообщений: 87

mb08 · 25-Окт-18 05:08 (спустя 6 дней)

Наконец-то пятиканальный оригинал.
Ну, нафиг эти все переводы.

LION1234

Top Seed 03* 160r

Стаж: 8 лет 11 месяцев

Сообщений: 588

flag

LION1234 · 07-Дек-18 12:39 (спустя 1 месяц 13 дней, ред. 07-Дек-18 12:39)

Обновил торрент, заменил сэмпл.
Цитата:
Аудио 2: RUS / AC-3, 48.0 kHz, 2.0, 192 kb/s | профессиональный (дублированный) SDI Media
больше похоже на закадровый.
Подожду решения модератора.

Dictum factum — «Сказано — Сделано»

bot · 10-Дек-18 08:23 (спустя 2 дня 19 часов)

Тема была перенесена из форума HD Video в форум Зарубежное кино (HD Video)
porvaliparus
 

orlovich1971

Стаж: 5 лет

Сообщений: 1189

flag

orlovich1971 · 10-Дек-18 11:18 (спустя 2 дня 22 часа)

Огромное спасибо за 720р.
 
All rights reserved © 2017-2018
Loading...
Error