Дюнкерк / Dunkirk (Кристофер Нолан / Christopher Nolan) [2017, Нидерланды, Великобритания, Франция, США, военный, BDRip 1080p] [IMAX] Dub + AVO + Original + Sub (rus, eng, bul, chi, hrv, cze, dan, est, Fra, gre, nor, pol, por, srv, spa, swe, tur)

Статистика раздачи
Размер:  17.71 GB   |   Зарегистрирован:  7 месяцев   |   .torrent скачан:  1,465 раз
Сиды:  15
Автор
Сообщение

DCF24

Стаж: 2 года 7 месяцев

Сообщений: 128

flag

DCF24 · 07-Май-18 15:46 (7 месяцев назад, ред. 07-Май-18 16:47)

 

Дюнкерк / Dunkirk
«Событие, которое изменило мир»
Страна: Нидерланды, Великобритания, Франция, США
Студия: Canal+ Ciné, Dombey Street Productions, Kaap Holland Film, RatPac-Dune Entertainment, Syncopy, Warner Bros. Pictures
Жанр: военный, драма, история
Год выпуска: 2017
Продолжительность: 01:46:38
Перевод: Профессиональный (полное дублированние)
+ Авторский (одноголосый закадровый) Андрей Гаврилов
Оригинальная аудиодорожка: английский
Субтитры: русский (форс; полные), английские (full, SDH), bul, chi, hrv, cze, dan, est, fre, gre, nor, pol, por, srv, spa, swe, tur
Режиссер: Кристофер Нолан / Christopher Nolan
В ролях: Финн Уайтхед, Том Глинн-Карни, Джек Лауден, Гарри Стайлс, Анайрин Барнард, Джеймс Д’Арси, Барри Кеоган, Кеннет Брана, Киллиан Мёрфи, Марк Райлэнс, Том Харди
Описание: Фильм расскажет историю чудесного спасения более трехсот тысяч солдат в ходе Дюнкеркской операции, имевшей место в начале Второй мировой войны. События начинаются с окружения сотен тысяч британских и союзных войск силами противника. Пойманные в ловушку на пляже, и находясь спиной к морю, они сталкиваются лицом к лицу с неразрешимой ситуацией, тем временем как тиски противника сжимаются все сильнее и сильнее.

• Энкод TayTo
Полное дублирование (custom) спасибо Loud_Swir
Полное дублирование спасибо ivan-bleyd
Одноголосый закадровый А.Гаврилов спасибо 1cancer
Сэмпл: Скачать
Тип релиза: BDRip 1080p IMAX
Контейнер: MKV
Главы: Сохранены оригинальные Blu-Ray главы (не подписаны)
Видео: 1920х1080 (16:9), 23.976 fps, x.264, ~18,8 mbps avg, 0.378 bit/(pixel*frame)
Аудио #1: AC3 Dolby Digital, 48 kHz, 3/2 (L,C,R,l,r) + LFE ch, ~448kbps | Полное дублирование
Аудио #2: Digital Theater Systems, 48 kHz, 3/2 (L,C,R,l,r) + LFE ch, ~1509 kbps | Полное дублирование (custom)
Аудио #3: Digital Theater Systems, 48 kHz, 3/2 (L,C,R,l,r) + LFE ch, ~1509 kbps | Одноголосый закадровый А.Гаврилов
Аудио #4: Digital Theater Systems, 48 kHz, 3/2 (L,C,R,l,r) + LFE ch, ~1509 kbps | English
Формат субтитров: softsub (SRT/UTF-8)
MediaInfo
Общее
Уникальный идентификатор : 217248261674248668908226227152169024195 (0xA3707E45CAE975A91555EA8E1BC53AC3)
Полное имя : E:\Dunkirk.2017.PROPER.1080p.BluRay.DTS.x264-TayTO.mkv
Формат : Matroska
Версия формата : Version 4 / Version 2
Размер файла : 17,7 Гбайт
Продолжительность : 1 ч. 46 м.
Общий поток : 23,8 Мбит/сек
Дата кодирования : UTC 2018-05-07 10:21:27
Программа кодирования : mkvmerge v22.0.0 ('At The End Of The World') 32-bit
Библиотека кодирования : libebml v1.3.5 + libmatroska v1.4.8
Видео
Идентификатор : 1
Формат : AVC
Формат/Информация : Advanced Video Codec
Профиль формата : High@L4.1
Настройки формата : CABAC / 4 Ref Frames
Параметр CABAC формата : Да
Параметр RefFrames формата : 4 кадра
Идентификатор кодека : V_MPEG4/ISO/AVC
Продолжительность : 1 ч. 46 м.
Битрейт : 18,8 Мбит/сек
Ширина : 1920 пикселей
Высота : 1080 пикселей
Соотношение сторон : 16:9
Режим частоты кадров : Постоянный
Частота кадров : 23,976 (24000/1001) кадра/сек
Цветовое пространство : YUV
Субдискретизация насыщенности : 4:2:0
Битовая глубина : 8 бит
Тип развёртки : Прогрессивная
Бит/(Пиксели*Кадры) : 0.378
Размер потока : 14,0 Гбайт (79%)
Заголовок : Дюнкерк / Dunkirk (2017) - TayTo
Библиотека кодирования : x264 core 152 r2851 ba24899
Настройки программы : cabac=1 / ref=4 / deblock=1:-3:-3 / analyse=0x3:0x133 / me=umh / subme=10 / psy=1 / psy_rd=1.05:0.00 / mixed_ref=1 / me_range=32 / chroma_me=1 / trellis=2 / 8x8dct=1 / cqm=0 / deadzone=21,11 / fast_pskip=0 / chroma_qp_offset=-2 / threads=8 / lookahead_threads=1 / sliced_threads=0 / nr=0 / decimate=0 / interlaced=0 / bluray_compat=0 / constrained_intra=0 / bframes=9 / b_pyramid=2 / b_adapt=2 / b_bias=0 / direct=3 / weightb=1 / open_gop=0 / weightp=2 / keyint=250 / keyint_min=23 / scenecut=40 / intra_refresh=0 / rc_lookahead=150 / rc=crf / mbtree=0 / crf=17.0 / qcomp=0.63 / qpmin=0 / qpmax=69 / qpstep=4 / vbv_maxrate=62500 / vbv_bufsize=78125 / crf_max=0.0 / nal_hrd=none / filler=0 / ip_ratio=1.30 / pb_ratio=1.20 / aq=3:0.80 / zones=23698,23760,crf=15/43717,44133,crf=15/44168,44237,crf=15/44238,44380,crf=15/44381,44481,crf=15/44482,44557,crf=14/44558,44731,crf=14/44732,44825,crf=14/44826,45111,crf=14/45112,45269,crf=14/45270,45568,crf=14/45569,45767,crf=14/45768,45867,crf=14/46088,46288,crf=15/46339,46391,crf=15/46641,46841,crf=14/47281,47386,crf=14/49176,49219,crf=14/49257,49299,crf=14/54521,54949,crf=15/55106,55611,crf=15/55634,55996,crf=13.5/56068,56272,crf=14/56273,57050,crf=13.5/56688,56790,crf=14/56791,57050,crf=14/57278,57351,crf=13.5/57452,57515,crf=13.5/57551,57584,crf=13.5/57585,57629,crf=15/57911,58248,crf=15/58687,58805,crf=14/58930,58946,crf=14/63163,65077,crf=14/71017,71252,crf=15/77669,77717,crf=16/78171,78314,crf=16/83701,83790,crf=15/83841,83881,crf=15/83988,84053,crf=15/84054,84084,crf=15/84354,84396,crf=15/95469,95542,crf=15.5/95604,95640,crf=15.5/95703,96007,crf=15.5/96376,96459,crf=15.5/98229,98366,crf=15/98962,98999,crf=15/101110,101154,crf=15/113117,113319,crf=16/118955,119038,crf=15/122349,122412,crf=15/122553,122665,crf=15/133825,133890,crf=15.5/135632,135854,crf=15/141968,142141,crf=15.5/142415,142643,crf=15/142739,153404,crf=22
Язык : English
Default : Да
Forced : Нет
Цветовой диапазон : Limited
Коэффициенты матрицы : BT.709
Аудио #1
Идентификатор : 2
Формат : AC-3
Формат/Информация : Audio Coding 3
Идентификатор кодека : A_AC3
Продолжительность : 1 ч. 46 м.
Вид битрейта : Постоянный
Битрейт : 448 Кбит/сек
Каналы : 6 каналов
Расположение каналов : Front: L C R, Side: L R, LFE
Частота : 48,0 КГц
Частота кадров : 31,250 кадров/сек (1536 SPF)
Битовая глубина : 16 бит
Метод сжатия : С потерями
Размер потока : 342 Мбайт (2%)
Заголовок : Dub, DD 5.1@448kbps
Язык : Russian
ServiceKind/String : Complete Main
Default : Нет
Forced : Нет
Аудио #2
Идентификатор : 3
Формат : DTS
Формат/Информация : Digital Theater Systems
Идентификатор кодека : A_DTS
Продолжительность : 1 ч. 46 м.
Вид битрейта : Постоянный
Битрейт : 1509 Кбит/сек
Каналы : 6 каналов
Расположение каналов : Front: L C R, Side: L R, LFE
Частота : 48,0 КГц
Частота кадров : 93,750 кадра/сек (512 SPF)
Битовая глубина : 16 бит
Метод сжатия : С потерями
Размер потока : 1,12 Гбайт (6%)
Заголовок : Dub, DTS 5.1@1509kbps (custom)
Язык : Russian
Default : Да
Forced : Нет
Аудио #3
Идентификатор : 4
Формат : DTS
Формат/Информация : Digital Theater Systems
Идентификатор кодека : A_DTS
Продолжительность : 1 ч. 46 м.
Вид битрейта : Постоянный
Битрейт : 1509 Кбит/сек
Каналы : 6 каналов
Расположение каналов : Front: L C R, Side: L R, LFE
Частота : 48,0 КГц
Частота кадров : 93,750 кадра/сек (512 SPF)
Битовая глубина : 16 бит
Метод сжатия : С потерями
Размер потока : 1,12 Гбайт (6%)
Заголовок : AVO, DTS 5.1@1509kbps (Gavrilov)
Язык : Russian
Default : Нет
Forced : Нет
Аудио #4
Идентификатор : 5
Формат : DTS
Формат/Информация : Digital Theater Systems
Идентификатор кодека : A_DTS
Продолжительность : 1 ч. 46 м.
Вид битрейта : Постоянный
Битрейт : 1509 Кбит/сек
Каналы : 6 каналов
Расположение каналов : Front: L C R, Side: L R, LFE
Частота : 48,0 КГц
Частота кадров : 93,750 кадра/сек (512 SPF)
Битовая глубина : 16 бит
Метод сжатия : С потерями
Размер потока : 1,12 Гбайт (6%)
Язык : English
Default : Нет
Forced : Нет
Текст #1
Идентификатор : 6
Формат : UTF-8
Идентификатор кодека : S_TEXT/UTF8
Идентификатор кодека/Информация : UTF-8 Plain Text
Продолжительность : 1 ч. 45 м.
Битрейт : 1 бит/сек
ElementCount : 30
Размер потока : 1,52 Кбайт (0%)
Заголовок : forced
Язык : Russian
Default : Да
Forced : Нет
Текст #2
Идентификатор : 7
Формат : UTF-8
Идентификатор кодека : S_TEXT/UTF8
Идентификатор кодека/Информация : UTF-8 Plain Text
Продолжительность : 1 ч. 46 м.
Битрейт : 40 бит/сек
ElementCount : 646
Размер потока : 31,1 Кбайт (0%)
Заголовок : full
Язык : Russian
Default : Нет
Forced : Нет
Текст #3
Идентификатор : 8
Формат : UTF-8
Идентификатор кодека : S_TEXT/UTF8
Идентификатор кодека/Информация : UTF-8 Plain Text
Продолжительность : 1 ч. 36 м.
Битрейт : 26 бит/сек
ElementCount : 693
Размер потока : 18,5 Кбайт (0%)
Язык : English
Default : Нет
Forced : Нет
Текст #4
Идентификатор : 9
Формат : UTF-8
Идентификатор кодека : S_TEXT/UTF8
Идентификатор кодека/Информация : UTF-8 Plain Text
Продолжительность : 1 ч. 37 м.
Битрейт : 31 бит/сек
ElementCount : 858
Размер потока : 23,0 Кбайт (0%)
Заголовок : English SDH
Язык : English
Default : Нет
Forced : Нет
Текст #5
Идентификатор : 10
Формат : UTF-8
Идентификатор кодека : S_TEXT/UTF8
Идентификатор кодека/Информация : UTF-8 Plain Text
Продолжительность : 1 ч. 46 м.
Битрейт : 37 бит/сек
ElementCount : 705
Размер потока : 28,9 Кбайт (0%)
Язык : Bulgarian
Default : Нет
Forced : Нет
Текст #6
Идентификатор : 11
Формат : UTF-8
Идентификатор кодека : S_TEXT/UTF8
Идентификатор кодека/Информация : UTF-8 Plain Text
Продолжительность : 1 ч. 46 м.
Битрейт : 24 бит/сек
ElementCount : 655
Размер потока : 19,0 Кбайт (0%)
Заголовок : Simplified
Язык : Chinese
Default : Нет
Forced : Нет
Текст #7
Идентификатор : 12
Формат : UTF-8
Идентификатор кодека : S_TEXT/UTF8
Идентификатор кодека/Информация : UTF-8 Plain Text
Продолжительность : 1 ч. 45 м.
Битрейт : 19 бит/сек
ElementCount : 682
Размер потока : 15,2 Кбайт (0%)
Заголовок : Traditional
Язык : Chinese
Default : Нет
Forced : Нет
Текст #8
Идентификатор : 13
Формат : UTF-8
Идентификатор кодека : S_TEXT/UTF8
Идентификатор кодека/Информация : UTF-8 Plain Text
Продолжительность : 1 ч. 46 м.
Битрейт : 19 бит/сек
ElementCount : 712
Размер потока : 15,3 Кбайт (0%)
Язык : Chinese
Default : Нет
Forced : Нет
Текст #9
Идентификатор : 14
Формат : UTF-8
Идентификатор кодека : S_TEXT/UTF8
Идентификатор кодека/Информация : UTF-8 Plain Text
Продолжительность : 1 ч. 45 м.
Битрейт : 23 бит/сек
ElementCount : 708
Размер потока : 18,2 Кбайт (0%)
Язык : Croatian
Default : Нет
Forced : Нет
Текст #10
Идентификатор : 15
Формат : UTF-8
Идентификатор кодека : S_TEXT/UTF8
Идентификатор кодека/Информация : UTF-8 Plain Text
Продолжительность : 1 ч. 46 м.
Битрейт : 22 бит/сек
ElementCount : 712
Размер потока : 17,2 Кбайт (0%)
Язык : Czech
Default : Нет
Forced : Нет
Текст #11
Идентификатор : 16
Формат : UTF-8
Идентификатор кодека : S_TEXT/UTF8
Идентификатор кодека/Информация : UTF-8 Plain Text
Продолжительность : 1 ч. 45 м.
Битрейт : 23 бит/сек
ElementCount : 539
Размер потока : 18,5 Кбайт (0%)
Язык : Danish
Default : Нет
Forced : Нет
Текст #12
Идентификатор : 17
Формат : UTF-8
Идентификатор кодека : S_TEXT/UTF8
Идентификатор кодека/Информация : UTF-8 Plain Text
Продолжительность : 1 ч. 40 м.
Битрейт : 22 бит/сек
ElementCount : 709
Размер потока : 16,6 Кбайт (0%)
Язык : Estonian
Default : Нет
Forced : Нет
Текст #13
Идентификатор : 18
Формат : UTF-8
Идентификатор кодека : S_TEXT/UTF8
Идентификатор кодека/Информация : UTF-8 Plain Text
Продолжительность : 1 ч. 46 м.
Битрейт : 19 бит/сек
ElementCount : 646
Размер потока : 15,1 Кбайт (0%)
Язык : French
Default : Нет
Forced : Нет
Текст #14
Идентификатор : 19
Формат : UTF-8
Идентификатор кодека : S_TEXT/UTF8
Идентификатор кодека/Информация : UTF-8 Plain Text
Продолжительность : 1 ч. 46 м.
Битрейт : 43 бит/сек
ElementCount : 709
Размер потока : 33,6 Кбайт (0%)
Язык : Greek
Default : Нет
Forced : Нет
Текст #15
Идентификатор : 20
Формат : UTF-8
Идентификатор кодека : S_TEXT/UTF8
Идентификатор кодека/Информация : UTF-8 Plain Text
Продолжительность : 1 ч. 45 м.
Битрейт : 22 бит/сек
ElementCount : 544
Размер потока : 17,1 Кбайт (0%)
Язык : Norwegian
Default : Нет
Forced : Нет
Текст #16
Идентификатор : 21
Формат : UTF-8
Идентификатор кодека : S_TEXT/UTF8
Идентификатор кодека/Информация : UTF-8 Plain Text
Продолжительность : 1 ч. 46 м.
Битрейт : 19 бит/сек
ElementCount : 695
Размер потока : 14,9 Кбайт (0%)
Язык : Polish
Default : Нет
Forced : Нет
Текст #17
Идентификатор : 22
Формат : UTF-8
Идентификатор кодека : S_TEXT/UTF8
Идентификатор кодека/Информация : UTF-8 Plain Text
Продолжительность : 1 ч. 45 м.
Битрейт : 22 бит/сек
ElementCount : 706
Размер потока : 17,7 Кбайт (0%)
Заголовок : - Brazilian
Язык : Portuguese
Default : Нет
Forced : Нет
Текст #18
Идентификатор : 23
Формат : UTF-8
Идентификатор кодека : S_TEXT/UTF8
Идентификатор кодека/Информация : UTF-8 Plain Text
Продолжительность : 1 ч. 45 м.
Битрейт : 20 бит/сек
ElementCount : 512
Размер потока : 16,2 Кбайт (0%)
Язык : Slovenian
Default : Нет
Forced : Нет
Текст #19
Идентификатор : 24
Формат : UTF-8
Идентификатор кодека : S_TEXT/UTF8
Идентификатор кодека/Информация : UTF-8 Plain Text
Продолжительность : 1 ч. 40 м.
Битрейт : 24 бит/сек
ElementCount : 711
Размер потока : 18,0 Кбайт (0%)
Язык : Spanish
Default : Нет
Forced : Нет
Текст #20
Идентификатор : 25
Формат : UTF-8
Идентификатор кодека : S_TEXT/UTF8
Идентификатор кодека/Информация : UTF-8 Plain Text
Продолжительность : 1 ч. 45 м.
Битрейт : 23 бит/сек
ElementCount : 697
Размер потока : 18,4 Кбайт (0%)
Язык : Swedish
Default : Нет
Forced : Нет
Текст #21
Идентификатор : 26
Формат : UTF-8
Идентификатор кодека : S_TEXT/UTF8
Идентификатор кодека/Информация : UTF-8 Plain Text
Продолжительность : 1 ч. 45 м.
Битрейт : 23 бит/сек
ElementCount : 703
Размер потока : 18,2 Кбайт (0%)
Язык : Turkish
Default : Нет
Forced : Нет
Меню
00:00:00.000 : en:Chapter 1
00:08:51.364 : en:Chapter 2
00:20:13.754 : en:Chapter 3
00:29:07.620 : en:Chapter 4
00:42:35.261 : en:Chapter 5
00:52:48.206 : en:Chapter 6
01:04:32.827 : en:Chapter 7
01:12:50.824 : en:Chapter 8
01:25:55.024 : en:Chapter 9
01:33:23.347 : en:Chapter 10
01:39:13.906 : en:Chapter 11
Доп. информация
INFO
RELEASE NAME..: Dunkirk.2017.PROPER.1080p.BluRay.DTS.x264-TayTO
RELEASE SIZE..: 15.3 GiB
RUNTIME.......: 1 h 46 min
VIDEO CODEC...: x264, crf, L4.1
FRAMERATE.....: 23.976 fps
BITRATE.......: 18.8 Mb/s
RESOLUTION....: 1920 x 1080
AUDIO.........: English DTS 5.1
CHAPTERS......: Numbered
SOURCE........: Dunkirk.2017.BluRay.1080p.AVC.DTS-HD.MA5.1-CHDBits
SUBTITLES.....: English | English - SDH | Bulgarian | Croatian | Czech | Danish | Estonian | French | Greek | Chinese (simplified) | Chinese (Traditional) | Chinese (Cantonese) | Norwegian | Polish | Portuguese (Brazilian) | Russian | Slovenian | Spanish | Swedish | Turkish | Finnish | German | Latvian | Lithuanian | Romanian | Thai (.srt/PGS)
PROPER REASON, Fixed banding throughout the entire movie (those noticeable in playback) using various filters/zones and fixed dirty lines across all non-imax scenes (CTRLHD didn’t fix any banding or dirty lines) - achieved using similar bitrate
DRF Analysis
About file
Name Dunkirk.2017.PROPER.1080p.BluRay.DTS.x264-TayTO.mkv
Date Mon, 07 May 2018 16:35:20 +0600
Size 19,015,346,326 bytes (18134.447409 MiB)
Magic
File type data
Generic infos
Duration 01:46:38 (6398.273 s)
Container matroska
Production date Mon, 07 May 2018 16:21:27 +0600
Total tracks 26
Track nr. 1 video (V_MPEG4/ISO/AVC) [Дюнкерк / Dunkirk (2017) - TayTo] {eng}
Track nr. 2 audio (A_AC3) [Dub, DD 5.1@448kbps] {rus}
Track nr. 3 audio (A_DTS) [Dub, DTS 5.1@1509kbps (custom)] {rus}
Track nr. 4 audio (A_DTS) [AVO, DTS 5.1@1509kbps (Gavrilov)] {rus}
Track nr. 5 audio (A_DTS) {eng}
Track nr. 6 subtitle (S_TEXT/UTF8) [forced] {rus}
Track nr. 7 subtitle (S_TEXT/UTF8) [full] {rus}
Track nr. 8 subtitle (S_TEXT/UTF8) {eng}
Track nr. 9 subtitle (S_TEXT/UTF8) [English SDH] {eng}
Track nr. 10 subtitle (S_TEXT/UTF8) {bul}
Track nr. 11 subtitle (S_TEXT/UTF8) [Simplified] {chi}
Track nr. 12 subtitle (S_TEXT/UTF8) [Traditional] {chi}
Track nr. 13 subtitle (S_TEXT/UTF8) {chi}
Track nr. 14 subtitle (S_TEXT/UTF8) {hrv}
Track nr. 15 subtitle (S_TEXT/UTF8) {cze}
Track nr. 16 subtitle (S_TEXT/UTF8) {dan}
Track nr. 17 subtitle (S_TEXT/UTF8) {est}
Track nr. 18 subtitle (S_TEXT/UTF8) {fre}
Track nr. 19 subtitle (S_TEXT/UTF8) {gre}
Track nr. 20 subtitle (S_TEXT/UTF8) {nor}
Track nr. 21 subtitle (S_TEXT/UTF8) {pol}
Track nr. 22 subtitle (S_TEXT/UTF8) [- Brazilian] {por}
Track nr. 23 subtitle (S_TEXT/UTF8) {slv}
Track nr. 24 subtitle (S_TEXT/UTF8) {spa}
Track nr. 25 subtitle (S_TEXT/UTF8) {swe}
Track nr. 26 subtitle (S_TEXT/UTF8) {tur}
Muxing library libebml v1.3.5 + libmatroska v1.4.8
Writing application mkvmerge v22.0.0 ('At The End Of The World') 32-bit
Relevant data
Resolution 1920 x 1080
Width multiple of 32
Height multiple of 8
Average DRF 10.806317
Standard deviation 6.094404
Std. dev. weighted mean 6.08089
Video track
Codec ID V_MPEG4/ISO/AVC
Resolution 1920 x 1080
Frame aspect ratio 16:9 = 1.777778
Pixel aspect ratio 1:1 = 1
Display aspect ratio 16:9 = 1.777778
Framerate 23.976024 fps
Stream size 15,031,922,299 bytes (14335.558223 MiB)
Duration (bs) 01:46:38 (6398.266824 s)
Bitrate (bs) 18794.992723 kbps
Qf 0.378042
Audio track nr. 1
Codec ID A_AC3
Sampling frequency 48000 Hz
Channels 6
Stream size 358,303,232 bytes (341.70459 MiB)
Bitstream type (bs) AC3
Frames (bs) 199,946
Duration (bs) 01:46:38 (6398.272 s)
Chunk-aligned (bs) Yes
Bitrate (bs) 448 kbps CBR
Sampling frequency (bs) 48000 Hz
Mode (bs) 3 front, 2 rear, 1 LFE
Audio track nr. 2
Codec ID A_DTS
Sampling frequency 48000 Hz
Channels 6
Sample size 16-bit
Stream size 1,206,874,056 bytes (1150.96479 MiB)
Bitstream type (bs) DTS
Frames (bs) 599,838
Duration (bs) 01:46:38 (6398.272 s)
Chunk-aligned (bs) Yes
Bitrate (bs) 1536 kbps CBR
Sampling frequency (bs) 48000 Hz
Mode (bs) C + L + R+ SL+SR
Audio track nr. 3
Codec ID A_DTS
Sampling frequency 48000 Hz
Channels 6
Sample size 16-bit
Stream size 1,206,874,056 bytes (1150.96479 MiB)
Bitstream type (bs) DTS
Frames (bs) 599,838
Duration (bs) 01:46:38 (6398.272 s)
Chunk-aligned (bs) Yes
Bitrate (bs) 1536 kbps CBR
Sampling frequency (bs) 48000 Hz
Mode (bs) C + L + R+ SL+SR
Audio track nr. 4
Codec ID A_DTS
Sampling frequency 48000 Hz
Channels 6
Sample size 16-bit
Stream size 1,206,874,056 bytes (1150.96479 MiB)
Bitstream type (bs) DTS
Frames (bs) 599,838
Duration (bs) 01:46:38 (6398.272 s)
Chunk-aligned (bs) Yes
Bitrate (bs) 1536 kbps CBR
Sampling frequency (bs) 48000 Hz
Mode (bs) C + L + R+ SL+SR
Video bitstream
Bitstream type MPEG-4 Part 10
User data x264 | core 152 r2851 ba24899 | H.264/MPEG-4 AVC codec
User data Copyleft 2003-2017 | cabac=1
User data ref=4 | deblock=1:-3:-3 | analyse=0x3:0x133 | me=umh | subme=10
User data psy=1 | psy_rd=1.05:0.00 | mixed_ref=1 | me_range=32 | chroma_me=1
User data trellis=2 | 8x8dct=1 | cqm=0 | deadzone=21,11 | fast_pskip=0
User data chroma_qp_offset=-2 | threads=8 | lookahead_threads=1
User data sliced_threads=0 | nr=0 | decimate=0 | interlaced=0
User data bluray_compat=0 | constrained_intra=0 | bframes=9 | b_pyramid=2
User data b_adapt=2 | b_bias=0 | direct=3 | weightb=1 | open_gop=0 | weightp=2
User data keyint=250 | keyint_min=23 | scenecut=40 | intra_refresh=0
User data rc_lookahead=150 | rc=crf | mbtree=0 | crf=17.0 | qcomp=0.63
User data qpmin=0 | qpmax=69 | qpstep=4 | vbv_maxrate=62500
User data vbv_bufsize=78125 | crf_max=0.0 | nal_hrd=none | filler=0
User data ip_ratio=1.30 | pb_ratio=1.20 | aq=3:0.80
User data zones=23698,23760,crf=15/43717,44133,crf=15/44168,44237,
crf=15/44238,44380,crf=15/44381,44481,crf=15/44482,44557,
crf=14/44558,44731,crf=14/44732,44825,crf=14/44826,45111,
crf=14/45112,45269,crf=14/45270,45568,crf=14/45569,45767,
crf=14/45768,45867,crf=14/46088,46288,crf=15/46339,46391,
crf=15/46641,46841,crf=14/47281,47386,crf=14/49176,49219,
crf=14/49257,49299,crf=14/54521,54949,crf=15/55106,55611,
crf=15/55634,55996,crf=13.5/56068,56272,crf=14/56273,57050,crf=13.
5/56688,56790,crf=14/56791,57050,crf=14/57278,57351,crf=13.5/57452,
57515,crf=13.5/57551,57584,crf=13.5/57585,57629,crf=15/57911,58248,
crf=15/58687,58805,crf=14/58930,58946,crf=14/63163,65077,
crf=14/71017,71252,crf=15/77669,77717,crf=16/78171,78314,
crf=16/83701,83790,crf=15/83841,83881,crf=15/83988,84053,
crf=15/84054,84084,crf=15/84354,84396,crf=15/95469,95542,crf=15.
5/95604,95640,crf=15.5/95703,96007,crf=15.5/96376,96459,crf=15.
5/98229,98366,crf=15/98962,98999,crf=15/101110,101154,crf=15/113117,
113319,crf=16/118955,119038,crf=15/122349,122412,crf=15/122553,
122665,crf=15/133825,133890,crf=15.5/135632,135854,crf=15/141968,
142141,crf=15.5/142415,142643,crf=15/142739,153404,crf=22
SPS id 0
Profile High@L4.1
Num ref frames 4
Chroma format YUV 4:2:0
PPS id 0 (SPS: 0)
Entropy coding type CABAC
Weighted prediction P slices - explicit weighted prediction
Weighted bipred idc B slices - implicit weighted prediction
8x8dct Yes
Total frames 153,405
Drop/delay frames 0
Corrupt frames 0
P-slices 35109 ( 22.886 %) #####
B-slices 117325 ( 76.481 %) ###############
I-slices 971 ( 0.633 %)
SP-slices 0 ( 0.000 %)
SI-slices 0 ( 0.000 %)
DRF analysis
average DRF 10.806317
standard deviation 6.094404
max DRF 31
DRF=1 2129 ( 1.388 %)
DRF=2 9600 ( 6.258 %) #
DRF=3 20851 ( 13.592 %) ###
DRF=4 12944 ( 8.438 %) ##
DRF=5 2176 ( 1.418 %)
DRF=6 1842 ( 1.201 %)
DRF=7 3250 ( 2.119 %)
DRF=8 2589 ( 1.688 %)
DRF=9 1864 ( 1.215 %)
DRF=10 2584 ( 1.684 %)
DRF=11 4002 ( 2.609 %) #
DRF=12 6854 ( 4.468 %) #
DRF=13 12768 ( 8.323 %) ##
DRF=14 17324 ( 11.293 %) ##
DRF=15 15808 ( 10.305 %) ##
DRF=16 12031 ( 7.843 %) ##
DRF=17 7687 ( 5.011 %) #
DRF=18 4794 ( 3.125 %) #
DRF=19 3349 ( 2.183 %)
DRF=20 2527 ( 1.647 %)
DRF=21 2025 ( 1.320 %)
DRF=22 1399 ( 0.912 %)
DRF=23 837 ( 0.546 %)
DRF=24 447 ( 0.291 %)
DRF=25 286 ( 0.186 %)
DRF=26 156 ( 0.102 %)
DRF=27 96 ( 0.063 %)
DRF=28 37 ( 0.024 %)
DRF=29 10 ( 0.007 %)
DRF=30 3 ( 0.002 %)
DRF=31 1 ( 0.001 %)
DRF>31 0 ( 0.000 %)
P-slices average DRF 10.196047
P-slices std. deviation 6.000839
P-slices max DRF 28
B-slices average DRF 11.011055
B-slices std. deviation 6.103443
B-slices max DRF 31
I-slices average DRF 8.133883
I-slices std. deviation 6.25024
I-slices max DRF 24
Profile compliancy
Selected profile MTK PAL 6000
Resolution 1920 x 1080 > 720 x 576
Framerate 23.976024 <> 25
Buffer underflow 00:00:04 (frame 95)
Buffer underflow 00:00:04 (frame 101)
Buffer underflow 00:00:04 (frame 106)
Buffer underflow 00:00:05 (frame 110)
Buffer underflow 00:00:05 (frame 115)
Buffer underflow 00:00:05 (frame 120)
Buffer underflow 00:00:05 (frame 125)
Buffer underflow 00:00:05 (frame 130)
Buffer underflow 00:00:06 (frame 135)
Buffer underflow 00:00:06 (frame 140)
Buffer underflow 00:00:06 (frame 145)
Buffer underflow 00:00:06 (frame 149)
Buffer underflow 00:00:06 (frame 153)
Buffer underflow 00:00:07 (frame 158)
Buffer underflow 00:00:07 (frame 163)
Buffer underflow 00:00:07 (frame 168)
Buffer underflow 00:00:07 (frame 172)
Buffer underflow 00:00:07 (frame 176)
Buffer underflow 00:00:08 (frame 181)
Buffer underflow 00:00:08 (frame 186)
Error Too many violations
Edition entry
UID 5868332089851722887
Hidden No
Selected by default No
Playlist No
Chapters
00:00:00,000-00:08:51,364 Chapter 1 {eng}
00:08:51,364-00:20:13,754 Chapter 2 {eng}
00:20:13,754-00:29:07,621 Chapter 3 {eng}
00:29:07,621-00:42:35,261 Chapter 4 {eng}
00:42:35,261-00:52:48,207 Chapter 5 {eng}
00:52:48,207-01:04:32,827 Chapter 6 {eng}
01:04:32,827-01:12:50,825 Chapter 7 {eng}
01:12:50,825-01:25:55,025 Chapter 8 {eng}
01:25:55,025-01:33:23,348 Chapter 9 {eng}
01:33:23,348-01:39:13,906 Chapter 10 {eng}
01:39:13,906-01:46:38,273 Chapter 11 {eng}
Скриншоты
Зарегистрирован:
  • 07-Май-18 15:46
  • Скачан: 1,465 раз

Скачать .torrent

44 KB

Тип: обычная
Статус: * не проверено
Размер: 17.71 GB  ·  magnet09503CED3B02E782334F04D9C78646F927BD6763
  • Свернуть поддиректории
  • Развернуть
  • Переключить
  • Увел./умен. окно
загружается...

m1toll

Стаж: 7 лет 10 месяцев

Сообщений: 25

flag

m1toll · 22-Май-18 03:32 (спустя 14 дней)

а в чём разница между кастом дубляжем и стандартным? только в DTS и AC3 ? в сэмпле разницы не нашёл.
☢ Я старый пират и не знаю слов лицензионного соглашения ☢

DCF24

Стаж: 2 года 7 месяцев

Сообщений: 128

flag

DCF24 · 22-Май-18 15:14 (спустя 11 часов)

m1toll писал(а):
75389297а в чём разница между кастом дубляжем и стандартным? только в DTS и AC3 ? в сэмпле разницы не нашёл.
Разница в качестве звука.

m1toll

Стаж: 7 лет 10 месяцев

Сообщений: 25

flag

m1toll · 22-Май-18 17:50 (спустя 2 часа 36 мин.)

DCF24 писал(а):
75391105
m1toll писал(а):
75389297а в чём разница между кастом дубляжем и стандартным? только в DTS и AC3 ? в сэмпле разницы не нашёл.
Разница в качестве звука.
точно, битрейт то не посмотрел. благодарю.
☢ Я старый пират и не знаю слов лицензионного соглашения ☢

palyutik

Стаж: 6 лет 9 месяцев

Сообщений: 4

flag

palyutik · 11-Ноя-18 12:59 (спустя 5 месяцев 19 дней)

А есть где-нибудь это фильм в широком формате (21:9)?

Unwize

Стаж: 10 лет 10 месяцев

Сообщений: 329

flag

Unwize · 11-Ноя-18 16:03 (спустя 3 часа)

palyutik писал(а):
76299080А есть где-нибудь это фильм в широком формате (21:9)?
нет. Можете сами отрезать) Но боюсь получится не очень.

Skrywer

Стаж: 8 лет 11 месяцев

Сообщений: 36

Skrywer · 14-Ноя-18 19:16 (спустя 3 дня)

Блин, неужели кому-то нравится когда соотношение сторон постоянно меняется... Что-то в последнее время все больше фильмов в этом бредовом формате...
Попробовал посмотреть пару фильмов - хрень нереальная...

Unwize

Стаж: 10 лет 10 месяцев

Сообщений: 329

flag

Unwize · 15-Ноя-18 03:40 (спустя 8 часов)

Skrywer писал(а):
76319584Блин, неужели кому-то нравится когда соотношение сторон постоянно меняется... Что-то в последнее время все больше фильмов в этом бредовом формате...
Попробовал посмотреть пару фильмов - хрень нереальная...
Такие фильмы снимают только для кинотеатров, дома это смотрится действительно плохо. Им следовало все-таки не IMAX фрагменты подводить под 1:90, то есть под цифровой IMAX формат. Тогда бы и на носителях смотрелось нормально.
 
All rights reserved © 2017-2018
Loading...
Error