Ребекка / Rebecca (Альфред Хичкок / Alfred Hitchcock) [1940, США, триллер, мелодрама, драма, BDRip 720p] [FRA Transfer] [4K Remaster] 2x MVO (SomeWax, New Dream Media) + 2x AVO (Товбин, Живов) + Original Eng + Sub (Rus, Eng, Fra, Ita, Spa etc)

Статистика раздачи
Размер:  13.33 GB   |   Зарегистрирован:  1 месяц 1 день   |   .torrent скачан:  381 раз
Сиды:  3
Автор
Сообщение

DarLeg

Стаж: 10 лет 2 месяца

Сообщений: 1301

flag

DarLeg · 13-Ноя-18 22:09 (1 месяц 1 день назад, ред. 13-Ноя-18 22:58)

 

Ребекка / Rebecca
Год выпуска: 1940
Страна: США
Жанр: триллер, мелодрама, драма, детектив
Продолжительность: 02:10:28
Перевод 1: Профессиональный (многоголосый закадровый) SomeWax
Перевод 2: Профессиональный (многоголосый закадровый) New Dream Media
Перевод 3: Авторский (одноголосый закадровый) Юрий Товбин
Перевод 4: Авторский (одноголосый закадровый) Юрий Живов
Оригинальная аудиодорожка: Английская
Субтитры: Русские, английские, французские, итальянские, испанские, чешские, польские, греческие, португальские, турецкие, датские, шведские, румынские, хорватские, вьетнамские, китайские, иврит, тайские, арабские
Режиссер: Альфред Хичкок / Alfred Hitchcock
В ролях: Лоуренс Оливье, Джордж Сэндерс, Джоан Фонтейн, Джудит Андерсон, Найджел Брюс, Реджинальд Денни, С. Обри Смит, Глэдис Купер, Флоренс Бейтс, Мелвилл Купер, Лео Г. Кэррол, Леонард Кэри, Ламсден Хейр, Эдвард Филдинг, Форрестер Харви, Филип Винтер, Билли Беван, Эгон Бречер, Джино Коррадо, Альфред Хичкок, Лейланд Ходжсон, Альфонсе Мартелл, Билл О’Брайэн, Рональд Р. Ронделл, Эдит Шарп
Описание:
Максимиллиан Де Уинтер — богатый мужчина, примерно год назад потерявший свою жену, Ребекку. Он приезжает в Монте-Карло, где встречает миссис Ван Хоппер и её юную компаньонку, имя которой мы так и не узнаём. Постепенно Максимиллиан так заинтересовывается молодой девушкой, что в конце-концов женится на ней.
Новобрачные возвращаются в Мэндэрли, владение семьи Де Уинтеров, но со времени их прибытия новую миссис Де Уинтер подавляют и преследуют напоминания о Ребекке, которые она находит абсолютно во всём, что связано с ее новым домом.
За русские дорожки спасибо Галлер, Diablo, SJC и xamster.
| | Сэмпл
Качество: BDRip 720p (VXS)
Контейнер: MKV
Видео: x264, 958x720 (1.33:1), 23.976 fps, 12292 kbps
Аудио 1: Русский AC3 2.0, 48 kHz, 192 kbps — SomeWax
Аудио 2: Русский AC3 2.0, 48 kHz, 192 kbps — New Dream Media
Аудио 3: Русский AC3 2.0, 48 kHz, 192 kbps — Товбин
Аудио 4: Русский AC3 2.0, 48 kHz, 640 kbps — Живов
Аудио 5: Английский FLAC 1.0, 48 kHz, 541 kbps, 24-bit
Аудио 6: Английский AC3 1.0, 48 kHz, 192 kbps — Commentary by film scholar Leonard J. Leff
Аудио 7: Английский AC3 2.0, 48 kHz, 192 kbps — Commentary by Film Critic Richard Schickel
Аудио 8: Английский AC3 1.0, 48 kHz, 192 kbps — Isolated Music & Effects Track
Формат субтитров: softsub (SRT)
Скриншоты
MI
nfo
RELEASE iNFO
RELEASE NAME..: Rebecca.1940.VOSTFR.720p.BluRay.FLAC1.0.x264-VXS
ENCODED DATE..: UTC 2018-09-28
RELEASE SIZE..: 12.234 GiB
RUNTIME.......: 02h 10min 27sec 862ms
VIDEO CODEC...: x264 rev. 2867+103 t_mod_Custom_2 High@L4.1
FRAMERATE.....: 23.976 fps
VIDEO BITRATE.: ~ 12292 Kbps (~ 35.11% of source)
RESOLUTION....: 958 x 720 px
ASPECT RATIO..: 4:3
AUDIO 1.......: English FLAC 1.0 @ 541 Kbps
AUDIO 2.......: Commentary by Leonard J. Leff - English AC-3 1.0 @ 192 Kbps
AUDIO 3.......: Commentary by Richard Schickel - English AC-3 2.0 @ 192 Kbps
AUDIO 4.......: Isolated Music & Effects Track - AC-3 1.0 @ 192 Kbps
SUBTITLES.....: French SRT, French PGS, Danish SRT, Czech SRT, Croatian SRT, English SRT, English SRT SDH, Vietnamese SRT SDH
CHAPTERS......: Yes, Named (in French)
SOURCE 1......: Blu-ray FRA Carlotta (Thanks me)
SOURCE 2......: Blu-ray USA Criterion - Rebecca 1940 1080 BluRay FLAC1.0 x264-VietHD (Thanks Ryzen!)
SOURCE 3......: Blu-ray USA MGM (Commentary by Schickel) - Rebecca 1940 1080 BluRay FLAC1.0 x264-VietHD (Thanks Ryzen!)
ENCODER.......: 27h2j8FkY8 @ VXS
x264 iNFO
x264 [info]: frame I:1102 Avg QP:16.77 size:102190
x264 [info]: frame P:33656 Avg QP:17.68 size: 76351
x264 [info]: frame B:152924 Avg QP:18.18 size: 61112
x264 [info]: consecutive B-frames: 0.9% 0.5% 2.0% 12.3% 13.8% 46.3% 12.4% 8.3% 2.2% 1.4%
x264 [info]: encoded 187682 frames, 15.82 fps, 12292.17 kb/s, 11471 MB
General
Unique ID : 77868450255427044392406271444123155532 (0x3A94EB0281A71B5D4DE647578CF87C4C)
Complete name : Rebecca.1940.VOSTFR.720p.BluRay.DD.FLAC1.0.x264-VXS.mkv
Format : Matroska
Format version : Version 2
File size : 13.3 GiB
Duration : 2 h 10 min
Overall bit rate mode : Variable
Overall bit rate : 14.6 Mb/s
Movie name : Rebecca / Ребекка (1940) – GOSTRACKER
Encoded date : UTC 2018-11-13 19:40:46
Writing application : mkvmerge v28.2.0 ('The Awakening') 64-bit
Writing library : libebml v1.3.6 + libmatroska v1.4.9
Cover : Yes
Attachments : cover.jpg
CREDIT : All the Love in the world
SOURCE_1ST_AUDIO_COMMENTARY_ISOLATED_MUS : BD USA Criterion
SOURCE_2ND_AUDIO_COMMENTARY : BD USA MGM
SOURCE_VIDEO_AUDIO_FRENCH_SUBTITLE : BD FRA Carlotta
TEAM_ENCODE : VXS
x264_STATS : frame I:1102 Avg QP:16.77 size:102190 / frame P:33656 Avg QP:17.68 size: 76351 / frame B:152924 Avg QP:18.18 size: 61112 / consecutive B-frames: 0.9% 0.5% 2.0% 12.3% 13.8% 46.3% 12.4% 8.3% 2.2% 1.4% / encoded 187682 frames, 15.82 fps, 12292.17 kb/s, 11471 MB
Video
ID : 1
Format : AVC
Format/Info : Advanced Video Codec
Format profile : High@L4.1
Format settings : CABAC / 12 Ref Frames
Format settings, CABAC : Yes
Format settings, RefFrames : 12 frames
Codec ID : V_MPEG4/ISO/AVC
Duration : 2 h 10 min
Bit rate : 12.3 Mb/s
Width : 958 pixels
Height : 720 pixels
Display aspect ratio : 4:3
Frame rate mode : Constant
Frame rate : 23.976 (24000/1001) FPS
Color space : YUV
Chroma subsampling : 4:2:0
Bit depth : 8 bits
Scan type : Progressive
Bits/(Pixel*Frame) : 0.743
Stream size : 11.2 GiB (84%)
Title : VXS @ 12292 kbps
Writing library : x264 core 157 r2867+103 0d6443f t_mod_Custom_2 [8-bit@all X86_64]
Encoding settings : cabac=1 / ref=12 / deblock=1:-3:-3 / analyse=0x3:0x133 / me=umh / subme=10 / psy=1 / fade_compensate=0.00 / psy_rd=1.10:0.00 / mixed_ref=1 / me_range=32 / chroma_me=1 / trellis=2 / 8x8dct=1 / cqm=0 / deadzone=21,11 / fast_pskip=0 / chroma_qp_offset=-2 / threads=24 / lookahead_threads=4 / sliced_threads=0 / nr=0 / decimate=0 / interlaced=0 / bluray_compat=0 / constrained_intra=0 / fgo=0 / bframes=9 / b_pyramid=2 / b_adapt=2 / b_bias=0 / direct=3 / weightb=1 / open_gop=0 / weightp=2 / keyint=250 / keyint_min=23 / scenecut=40 / intra_refresh=0 / rc_lookahead=60 / rc=crf / mbtree=0 / crf=16.5500 / qcomp=0.60 / qpmin=0:0:0 / qpmax=69:69:69 / qpstep=4 / vbv_maxrate=62500 / vbv_bufsize=78125 / crf_max=0.0 / nal_hrd=none / filler=0 / ip_ratio=1.10 / pb_ratio=1.05 / aq=3:0.60 / aq-sensitivity=10.00 / aq-factor=1.00:1.00:1.00 / aq2=0 / aq3=0
Language : English
Default : Yes
Forced : No
Color range : Limited
Color primaries : BT.709
Transfer characteristics : BT.709
Matrix coefficients : BT.709
Audio #1
ID : 2
Format : AC-3
Format/Info : Audio Coding 3
Codec ID : A_AC3
Duration : 2 h 10 min
Bit rate mode : Constant
Bit rate : 192 kb/s
Channel(s) : 2 channels
Channel positions : Front: L R
Sampling rate : 48.0 kHz
Frame rate : 31.250 FPS (1536 SPF)
Bit depth : 16 bits
Compression mode : Lossy
Stream size : 179 MiB (1%)
Title : MVO – SomeWax
Language : Russian
Service kind : Complete Main
Default : Yes
Forced : No
Audio #2
ID : 3
Format : AC-3
Format/Info : Audio Coding 3
Codec ID : A_AC3
Duration : 2 h 10 min
Bit rate mode : Constant
Bit rate : 192 kb/s
Channel(s) : 2 channels
Channel positions : Front: L R
Sampling rate : 48.0 kHz
Frame rate : 31.250 FPS (1536 SPF)
Bit depth : 16 bits
Compression mode : Lossy
Stream size : 179 MiB (1%)
Title : MVO – New Dream Media
Language : Russian
Service kind : Complete Main
Default : No
Forced : No
Audio #3
ID : 4
Format : AC-3
Format/Info : Audio Coding 3
Codec ID : A_AC3
Duration : 2 h 10 min
Bit rate mode : Constant
Bit rate : 192 kb/s
Channel(s) : 2 channels
Channel positions : Front: L R
Sampling rate : 48.0 kHz
Frame rate : 31.250 FPS (1536 SPF)
Bit depth : 16 bits
Compression mode : Lossy
Stream size : 179 MiB (1%)
Title : AVO – Юрий Товбин
Language : Russian
Service kind : Complete Main
Default : No
Forced : No
Audio #4
ID : 5
Format : AC-3
Format/Info : Audio Coding 3
Codec ID : A_AC3
Duration : 2 h 10 min
Bit rate mode : Constant
Bit rate : 640 kb/s
Channel(s) : 2 channels
Channel positions : Front: L R
Sampling rate : 48.0 kHz
Frame rate : 31.250 FPS (1536 SPF)
Bit depth : 16 bits
Compression mode : Lossy
Stream size : 597 MiB (4%)
Title : AVO – Юрий Живов
Language : Russian
Service kind : Complete Main
Default : No
Forced : No
Audio #5
ID : 6
Format : FLAC
Format/Info : Free Lossless Audio Codec
Codec ID : A_FLAC
Duration : 2 h 10 min
Bit rate mode : Variable
Bit rate : 541 kb/s
Channel(s) : 1 channel
Channel positions : Front: C
Sampling rate : 48.0 kHz
Frame rate : 11.719 FPS (4096 SPF)
Bit depth : 24 bits
Stream size : 505 MiB (4%)
Title : Original
Writing library : libFLAC 1.3.2 (UTC 2017-01-01)
Language : English
Default : No
Forced : No
Audio #6
ID : 7
Format : AC-3
Format/Info : Audio Coding 3
Codec ID : A_AC3
Duration : 2 h 10 min
Bit rate mode : Constant
Bit rate : 192 kb/s
Channel(s) : 1 channel
Channel positions : Front: C
Sampling rate : 48.0 kHz
Frame rate : 31.250 FPS (1536 SPF)
Bit depth : 16 bits
Compression mode : Lossy
Stream size : 179 MiB (1%)
Title : Commentary by film scholar Leonard J. Leff
Language : English
Service kind : Complete Main
Default : No
Forced : No
Audio #7
ID : 8
Format : AC-3
Format/Info : Audio Coding 3
Codec ID : A_AC3
Duration : 2 h 10 min
Bit rate mode : Constant
Bit rate : 192 kb/s
Channel(s) : 2 channels
Channel positions : Front: L R
Sampling rate : 48.0 kHz
Frame rate : 31.250 FPS (1536 SPF)
Bit depth : 16 bits
Compression mode : Lossy
Stream size : 179 MiB (1%)
Title : Commentary by film critic Richard Schickel
Language : English
Service kind : Complete Main
Default : No
Forced : No
Audio #8
ID : 9
Format : AC-3
Format/Info : Audio Coding 3
Codec ID : A_AC3
Duration : 2 h 10 min
Bit rate mode : Constant
Bit rate : 192 kb/s
Channel(s) : 1 channel
Channel positions : Front: C
Sampling rate : 48.0 kHz
Frame rate : 31.250 FPS (1536 SPF)
Bit depth : 16 bits
Compression mode : Lossy
Stream size : 179 MiB (1%)
Title : Isolated Music & Effects Track
Language : English
Service kind : Complete Main
Default : No
Forced : No
Text #1
ID : 10
Format : UTF-8
Codec ID : S_TEXT/UTF8
Codec ID/Info : UTF-8 Plain Text
Duration : 2 h 9 min
Bit rate : 132 b/s
Count of elements : 1806
Stream size : 126 KiB (0%)
Title : SomeWax
Language : Russian
Default : No
Forced : No
Text #2
ID : 11
Format : UTF-8
Codec ID : S_TEXT/UTF8
Codec ID/Info : UTF-8 Plain Text
Duration : 2 h 7 min
Bit rate : 85 b/s
Count of elements : 1782
Stream size : 80.2 KiB (0%)
Title : full (Criterion)
Language : English
Default : No
Forced : No
Text #3
ID : 12
Format : UTF-8
Codec ID : S_TEXT/UTF8
Codec ID/Info : UTF-8 Plain Text
Duration : 2 h 7 min
Bit rate : 84 b/s
Count of elements : 1873
Stream size : 79.2 KiB (0%)
Title : full (MGM)
Language : English
Default : No
Forced : No
Text #4
ID : 13
Format : UTF-8
Codec ID : S_TEXT/UTF8
Codec ID/Info : UTF-8 Plain Text
Duration : 2 h 7 min
Bit rate : 87 b/s
Count of elements : 1826
Stream size : 81.7 KiB (0%)
Title : SDH (Criterion)
Language : English
Default : No
Forced : No
Text #5
ID : 14
Format : UTF-8
Codec ID : S_TEXT/UTF8
Codec ID/Info : UTF-8 Plain Text
Duration : 2 h 8 min
Bit rate : 55 b/s
Count of elements : 1602
Stream size : 52.8 KiB (0%)
Title : Carlotta Films
Language : French
Default : No
Forced : No
Text #6
ID : 15
Format : UTF-8
Codec ID : S_TEXT/UTF8
Codec ID/Info : UTF-8 Plain Text
Duration : 2 h 8 min
Bit rate : 78 b/s
Count of elements : 1873
Stream size : 74.0 KiB (0%)
Language : Italian
Default : No
Forced : No
Text #7
ID : 16
Format : UTF-8
Codec ID : S_TEXT/UTF8
Codec ID/Info : UTF-8 Plain Text
Duration : 2 h 8 min
Bit rate : 77 b/s
Count of elements : 1870
Stream size : 72.8 KiB (0%)
Language : Spanish
Default : No
Forced : No
Text #8
ID : 17
Format : UTF-8
Codec ID : S_TEXT/UTF8
Codec ID/Info : UTF-8 Plain Text
Duration : 2 h 7 min
Bit rate : 81 b/s
Count of elements : 1771
Stream size : 75.8 KiB (0%)
Language : Czech
Default : No
Forced : No
Text #9
ID : 18
Format : UTF-8
Codec ID : S_TEXT/UTF8
Codec ID/Info : UTF-8 Plain Text
Duration : 2 h 8 min
Bit rate : 81 b/s
Count of elements : 1502
Stream size : 77.3 KiB (0%)
Language : Polish
Default : No
Forced : No
Text #10
ID : 19
Format : UTF-8
Codec ID : S_TEXT/UTF8
Codec ID/Info : UTF-8 Plain Text
Duration : 2 h 7 min
Bit rate : 120 b/s
Count of elements : 1543
Stream size : 113 KiB (0%)
Language : Greek
Default : No
Forced : No
Text #11
ID : 20
Format : UTF-8
Codec ID : S_TEXT/UTF8
Codec ID/Info : UTF-8 Plain Text
Duration : 2 h 7 min
Bit rate : 78 b/s
Count of elements : 1846
Stream size : 73.2 KiB (0%)
Language : Portuguese
Default : No
Forced : No
Text #12
ID : 21
Format : UTF-8
Codec ID : S_TEXT/UTF8
Codec ID/Info : UTF-8 Plain Text
Duration : 2 h 7 min
Bit rate : 94 b/s
Count of elements : 1777
Stream size : 87.9 KiB (0%)
Language : Turkish
Default : No
Forced : No
Text #13
ID : 22
Format : UTF-8
Codec ID : S_TEXT/UTF8
Codec ID/Info : UTF-8 Plain Text
Duration : 2 h 7 min
Bit rate : 57 b/s
Count of elements : 1086
Stream size : 54.0 KiB (0%)
Language : Danish
Default : No
Forced : No
Text #14
ID : 23
Format : UTF-8
Codec ID : S_TEXT/UTF8
Codec ID/Info : UTF-8 Plain Text
Duration : 2 h 7 min
Bit rate : 56 b/s
Count of elements : 1092
Stream size : 53.0 KiB (0%)
Language : Swedish
Default : No
Forced : No
Text #15
ID : 24
Format : UTF-8
Codec ID : S_TEXT/UTF8
Codec ID/Info : UTF-8 Plain Text
Duration : 2 h 9 min
Bit rate : 70 b/s
Count of elements : 1567
Stream size : 67.3 KiB (0%)
Language : Romanian
Default : No
Forced : No
Text #16
ID : 25
Format : UTF-8
Codec ID : S_TEXT/UTF8
Codec ID/Info : UTF-8 Plain Text
Duration : 2 h 7 min
Bit rate : 61 b/s
Count of elements : 1521
Stream size : 57.8 KiB (0%)
Language : Croatian
Default : No
Forced : No
Text #17
ID : 26
Format : UTF-8
Codec ID : S_TEXT/UTF8
Codec ID/Info : UTF-8 Plain Text
Duration : 2 h 10 min
Bit rate : 119 b/s
Count of elements : 1925
Stream size : 114 KiB (0%)
Language : Vietnamese
Default : No
Forced : No
Text #18
ID : 27
Format : UTF-8
Codec ID : S_TEXT/UTF8
Codec ID/Info : UTF-8 Plain Text
Duration : 2 h 7 min
Bit rate : 71 b/s
Count of elements : 1883
Stream size : 66.7 KiB (0%)
Title : Simplified
Language : Chinese
Default : No
Forced : No
Text #19
ID : 28
Format : UTF-8
Codec ID : S_TEXT/UTF8
Codec ID/Info : UTF-8 Plain Text
Duration : 2 h 7 min
Bit rate : 71 b/s
Count of elements : 1883
Stream size : 66.7 KiB (0%)
Title : Traditional
Language : Chinese
Default : No
Forced : No
Text #20
ID : 29
Format : UTF-8
Codec ID : S_TEXT/UTF8
Codec ID/Info : UTF-8 Plain Text
Duration : 2 h 10 min
Bit rate : 97 b/s
Count of elements : 1664
Stream size : 93.0 KiB (0%)
Language : Hebrew
Default : No
Forced : No
Text #21
ID : 30
Format : UTF-8
Codec ID : S_TEXT/UTF8
Codec ID/Info : UTF-8 Plain Text
Duration : 2 h 8 min
Bit rate : 195 b/s
Count of elements : 1570
Stream size : 184 KiB (0%)
Language : Thai
Default : No
Forced : No
Text #22
ID : 31
Format : UTF-8
Codec ID : S_TEXT/UTF8
Codec ID/Info : UTF-8 Plain Text
Duration : 2 h 9 min
Bit rate : 109 b/s
Count of elements : 1777
Stream size : 104 KiB (0%)
Language : Arabic
Default : No
Forced : No
Menu #1
00:00:00.000 : en:01. Remembering Manderley
00:03:32.376 : en:02. First Impressions
00:07:44.503 : en:03 .Romance Blooms
00:18:13.131 : en:04. A Proposal
00:28:14.148 : en:05. "Welcome Home"
00:39:01.378 : en:06. R
00:46:58.229 : en:07. The Cottage
00:55:34.912 : en:08. Broken Cupid
01:02:11.975 : en:09. "A Lonely Old Bachelor"
01:06:39.159 : en:10. Raising The Dead
01:16:13.816 : en:11. "You Couldn't Compare"
01:24:27.851 : en:12. "Rebecca Has Won"
01:40:24.098 : en:13. "Believe What You Like"
01:49:18.340 : en:14. Blackmail
02:00:52.534 : en:15. The Motive
02:07:00.818 : en:16. A Bad Feeling
Menu #2
00:00:00.000 : fr:Générique / "Nous n'irons plus à Manderley"
00:03:32.421 : fr:Jours heureux à Monte-Carlo
00:18:14.510 : fr:"Quelle demande en mariage !"
00:28:13.275 : fr:Arrivée à Manderley
00:34:54.342 : fr:À la découverte des lieux et de ses habitants
00:41:38.913 : fr:Déjeuner avec les Lacy
00:51:26.834 : fr:"Je me sens si mal à l'aise"
01:02:11.519 : fr:"Cette chambre vous attirait"
01:13:06.215 : fr:"Mme de Winter, c'est moi !"
01:17:35.860 : fr:Le bal costumé
01:24:21.306 : fr:La vérité sur Rebecca
01:44:42.067 : fr:L'audience
01:49:17.885 : fr:"Je veux voir triompher la justice"
02:00:46.614 : fr:Visite chez le Dr Baker
02:07:00.905 : fr:La destruction de Manderley
Зарегистрирован:
  • 13-Ноя-18 22:58
  • Скачан: 381 раз

Скачать .torrent

67 KB

Тип: обычная
Статус: проверено
Размер: 13.33 GB  ·  magnetE22F7EE5900792EA6E43394A665C87E5850543F2
  • Свернуть поддиректории
  • Развернуть
  • Переключить
  • Увел./умен. окно
загружается...

DarLeg

Стаж: 10 лет 2 месяца

Сообщений: 1301

flag

DarLeg · 13-Ноя-18 23:05 (спустя 56 мин.)

Касательно сравнения с этой раздачей: наполнение кадра отличается (см. Скриншоты), думаю, обе раздачи могут сосуществовать вместе.

bot · 17-Ноя-18 06:20 (спустя 3 дня)

Тема была перенесена из форума HD Video в форум Классика мирового кинематографа (HD Video)
porvaliparus
 

groborg

Стаж: 9 лет

Сообщений: 10

flag

groborg · 29-Ноя-18 06:29 (спустя 15 дней)

Друзья! Пож-та, дайте скачать. Осталось половина процента и стало глухо...
 
All rights reserved © 2017-2018
Loading...
Error