Страх и ненависть в Лас-Вегасе / Fear and Loathing in Las Vegas (Терри Гиллиам / Terry Gilliam) [1998, США, драма, комедия, HDTVRip 720p] [Open Matte] Dub + DVO (West, Tycoon, Гланц, НТВ, РТР) + MVO (ОРТ) + AVO (Гаврилов, Живов, Казаков) + Original

Статистика раздачи
Размер:  9.27 GB   |   Зарегистрирован:  1 год 9 месяцев   |   .torrent скачан:  3,161 раз
Сиды:  9   Личи:  1
Автор
Сообщение

DDSH

Стаж: 10 лет 5 месяцев

Сообщений: 187

flag

DDSH · 25-Фев-17 14:34 (1 год 9 месяцев назад, ред. 25-Фев-17 14:57)

 

Страх и ненависть в Лас-Вегасе / Fear and Loathing in Las Vegas
Страна: США
Студия: Universal Pictures, Rhino Films
Жанр: драма, комедия
Год выпуска: 1998
Продолжительность: 01:58:00
Перевод 1: Профессиональный (дублированный) BD EUR
Перевод 2: Профессиональный (двухголосый закадровый) Гланц и Королева
Перевод 3: Профессиональный (двухголосый закадровый) West Video
Перевод 4: Профессиональный (двухголосый закадровый) Tycoon
Перевод 5: Профессиональный (многоголосый закадровый) ОРТ
Перевод 6: Профессиональный (двухголосый закадровый) НТВ
Перевод 7: Профессиональный (двухголосый закадровый) РТР
Перевод 8: Авторский (одноголосый, закадровый) Гаврилов
Перевод 9: Авторский (одноголосый, закадровый) Живов
Перевод 10: Авторский (одноголосый, закадровый) Казаков, версия 2
Субтитры: русские (West video, Гаврилов, Stewie, sunny-sko), английские (обычные + SDH)
Оригинальная аудиодорожка: английский
Режиссер: Терри Гиллиам / Terry Gilliam
В ролях: Джонни Депп, Бенисио Дель Торо, Тоби Магвайр, Эллен Баркин, Гари Бьюзи, Кристина Риччи, Марк Хэрмон, Кэмерон Диаз, Кэтрин Хелмонд, Майкл Джетер, Пенн Джиллетт, Крэйг Бирко, Лайл Ловетт, Флеа, Лорин Ньюман, Гарри Дин Стэнтон, Тим Томерсон, Майкл Ли Годжин, Ларри Седар, Брайан Ле Барон, Майкл Уорвик
Описание: Два приятеля едут в Лас-Вегас. Одного из них зовут Рауль Дьюк, он спортивный обозреватель, и в Вегас едет чтобы осветить знаменитую «Минт 400». Второго зовут Доктор Гонзо. Или что-то вроде того. А еще Доктор Гонзо - адвокат, но какая разница? Да и вокруг творится нечто невообразимое. Родную Неваду не узнать. Только специальные препараты могут спасти от всех этих тварей. Нормальным парням вроде наших героев временами даже как-то неуютно в этом хаосе...
Доп. информация: Полный хронометраж, рекламные вставки и логотипы отсутствуют. Благодарю miha2154 за помощь в подготовке релиза.
Сэмпл: http://sendfile.su/1312324
Тип релиза: HDTVRip 720p
Контейнер: MKV
Видео: x264, 1280x720 (16:9), 6182 kbps, 23.976 fps, 0.286 bpp
Аудио 1: rus, DTS, 6 ch, 48 kHz, 768 kbps (Дубляж)
Аудио 2: rus, AC3, 6 ch, 48 kHz, 640 kbps (Гланц и Королева)
Аудио 3: rus, AC3, 6 ch, 48 kHz, 448 kbps (West Video)
Аудио 4: rus, AC3, 6 ch, 48 kHz, 448 kbps (Tycoon)
Аудио 5: rus, AC3, 2 ch, 48 kHz, 192 kbps (ОРТ)
Аудио 6: rus, AC3, 2 ch, 48 kHz, 192 kbps (НТВ)
Аудио 7: rus, AC3, 2 ch, 48 kHz, 192 kbps (РТР)
Аудио 8: rus, AC3, 6 ch, 48 kHz, 640 kbps (Гаврилов)
Аудио 9: rus, AC3, 6 ch, 48 kHz, 448 kbps (Живов)
Аудио 10: rus, AC3, 6 ch, 48 kHz, 448 kbps (Казаков)
Аудио 11: eng, AC3, 6 ch, 48 kHz, 640 kbps (Оригинал)
Формат субтитров: softsub (SRT)
MediaInfo
General
Unique ID : 228544955667997935541986544414350579282 (0xABF02849CA8F1629A63D90C512371652)
Complete name : Fear.and.Loathing.in.Las.Vegas.1998.Open.Matte.720p.mkv
Format : Matroska
Format version : Version 4 / Version 2
File size : 9.27 GiB
Duration : 1 h 58 min
Overall bit rate : 11.2 Mb/s
Movie name : Fear and Loathing in Las Vegas (1998)
Encoded date : UTC 2017-02-25 11:11:25
Writing application : mkvmerge v9.9.0 ('Pick Up') 64bit
Writing library : libebml v1.3.4 + libmatroska v1.4.5
Video
ID : 1
Format : AVC
Format/Info : Advanced Video Codec
Format profile : High@L4.1
Format settings, CABAC : Yes
Format settings, ReFrames : 9 frames
Codec ID : V_MPEG4/ISO/AVC
Duration : 1 h 58 min
Bit rate : 6 182 kb/s
Width : 1 280 pixels
Height : 720 pixels
Display aspect ratio : 16:9
Frame rate mode : Constant
Frame rate : 23.976 (24000/1001) FPS
Color space : YUV
Chroma subsampling : 4:2:0
Bit depth : 8 bits
Scan type : Progressive
Bits/(Pixel*Frame) : 0.280
Stream size : 5.10 GiB (55%)
Writing library : x264 core 148 r2744 b97ae06
Encoding settings : cabac=1 / ref=9 / deblock=1:-3:-3 / analyse=0x3:0x113 / me=umh / subme=11 / psy=1 / psy_rd=1.05:0.00 / mixed_ref=1 / me_range=48 / chroma_me=1 / trellis=2 / 8x8dct=1 / cqm=0 / deadzone=21,11 / fast_pskip=0 / chroma_qp_offset=-2 / threads=12 / lookahead_threads=2 / sliced_threads=0 / nr=0 / decimate=1 / interlaced=0 / bluray_compat=0 / constrained_intra=0 / bframes=7 / b_pyramid=2 / b_adapt=2 / b_bias=0 / direct=3 / weightb=1 / open_gop=0 / weightp=2 / keyint=240 / keyint_min=23 / scenecut=40 / intra_refresh=0 / rc_lookahead=64 / rc=crf / mbtree=0 / crf=16.0 / qcomp=0.60 / qpmin=0 / qpmax=69 / qpstep=4 / vbv_maxrate=62500 / vbv_bufsize=78125 / crf_max=0.0 / nal_hrd=none / filler=0 / ip_ratio=1.40 / pb_ratio=1.30 / aq=1:1.00
Language : English
Default : Yes
Forced : No
Color range : Limited
Color primaries : BT.709
Transfer characteristics : BT.709
Matrix coefficients : BT.709
Audio #1
ID : 2
Format : DTS
Format/Info : Digital Theater Systems
Mode : 16
Format settings, Endianness : Big
Codec ID : A_DTS
Duration : 1 h 58 min
Bit rate mode : Constant
Bit rate : 768 kb/s
Channel(s) : 6 channels
Channel positions : Front: L C R, Side: L R, LFE
Sampling rate : 48.0 kHz
Frame rate : 93.750 FPS (512 spf)
Bit depth : 24 bits
Compression mode : Lossy
Stream size : 650 MiB (7%)
Title : Dub
Language : Russian
Default : Yes
Forced : No
Audio #2
ID : 3
Format : AC-3
Format/Info : Audio Coding 3
Mode extension : CM (complete main)
Format settings, Endianness : Big
Codec ID : A_AC3
Duration : 1 h 58 min
Bit rate mode : Constant
Bit rate : 640 kb/s
Channel(s) : 6 channels
Channel positions : Front: L C R, Side: L R, LFE
Sampling rate : 48.0 kHz
Frame rate : 31.250 FPS (1536 spf)
Bit depth : 16 bits
Compression mode : Lossy
Stream size : 540 MiB (6%)
Title : DVO (Glanz)
Language : Russian
Default : No
Forced : No
Audio #3
ID : 4
Format : AC-3
Format/Info : Audio Coding 3
Mode extension : CM (complete main)
Format settings, Endianness : Big
Codec ID : A_AC3
Duration : 1 h 58 min
Bit rate mode : Constant
Bit rate : 448 kb/s
Channel(s) : 6 channels
Channel positions : Front: L C R, Side: L R, LFE
Sampling rate : 48.0 kHz
Frame rate : 31.250 FPS (1536 spf)
Bit depth : 16 bits
Compression mode : Lossy
Stream size : 378 MiB (4%)
Title : DVO (West)
Language : Russian
Default : No
Forced : No
Audio #4
ID : 5
Format : AC-3
Format/Info : Audio Coding 3
Mode extension : CM (complete main)
Format settings, Endianness : Big
Codec ID : A_AC3
Duration : 1 h 58 min
Bit rate mode : Constant
Bit rate : 448 kb/s
Channel(s) : 6 channels
Channel positions : Front: L C R, Side: L R, LFE
Sampling rate : 48.0 kHz
Frame rate : 31.250 FPS (1536 spf)
Bit depth : 16 bits
Compression mode : Lossy
Stream size : 378 MiB (4%)
Title : DVO (Tycoon)
Language : Russian
Default : No
Forced : No
Audio #5
ID : 6
Format : AC-3
Format/Info : Audio Coding 3
Mode extension : CM (complete main)
Format settings, Endianness : Big
Codec ID : A_AC3
Duration : 1 h 57 min
Bit rate mode : Constant
Bit rate : 192 kb/s
Channel(s) : 2 channels
Channel positions : Front: L R
Sampling rate : 48.0 kHz
Frame rate : 31.250 FPS (1536 spf)
Bit depth : 16 bits
Compression mode : Lossy
Stream size : 162 MiB (2%)
Title : MVO (ORT)
Language : Russian
Default : No
Forced : No
Audio #6
ID : 7
Format : AC-3
Format/Info : Audio Coding 3
Mode extension : CM (complete main)
Format settings, Endianness : Big
Codec ID : A_AC3
Duration : 1 h 58 min
Bit rate mode : Constant
Bit rate : 192 kb/s
Channel(s) : 2 channels
Channel positions : Front: L R
Sampling rate : 48.0 kHz
Frame rate : 31.250 FPS (1536 spf)
Bit depth : 16 bits
Compression mode : Lossy
Stream size : 163 MiB (2%)
Title : DVO (NTV)
Language : Russian
Default : No
Forced : No
Audio #7
ID : 8
Format : AC-3
Format/Info : Audio Coding 3
Mode extension : CM (complete main)
Format settings, Endianness : Big
Codec ID : A_AC3
Duration : 1 h 57 min
Bit rate mode : Constant
Bit rate : 192 kb/s
Channel(s) : 2 channels
Channel positions : Front: L R
Sampling rate : 48.0 kHz
Frame rate : 31.250 FPS (1536 spf)
Bit depth : 16 bits
Compression mode : Lossy
Stream size : 162 MiB (2%)
Title : DVO (RTR)
Language : Russian
Default : No
Forced : No
Audio #8
ID : 9
Format : AC-3
Format/Info : Audio Coding 3
Mode extension : CM (complete main)
Format settings, Endianness : Big
Codec ID : A_AC3
Duration : 1 h 58 min
Bit rate mode : Constant
Bit rate : 640 kb/s
Channel(s) : 6 channels
Channel positions : Front: L C R, Side: L R, LFE
Sampling rate : 48.0 kHz
Frame rate : 31.250 FPS (1536 spf)
Bit depth : 16 bits
Compression mode : Lossy
Stream size : 540 MiB (6%)
Title : AVO (Gavrilov)
Language : Russian
Default : No
Forced : No
Audio #9
ID : 10
Format : AC-3
Format/Info : Audio Coding 3
Mode extension : CM (complete main)
Format settings, Endianness : Big
Codec ID : A_AC3
Duration : 1 h 58 min
Bit rate mode : Constant
Bit rate : 448 kb/s
Channel(s) : 6 channels
Channel positions : Front: L C R, Side: L R, LFE
Sampling rate : 48.0 kHz
Frame rate : 31.250 FPS (1536 spf)
Bit depth : 16 bits
Compression mode : Lossy
Stream size : 378 MiB (4%)
Title : AVO (Zhivov)
Language : Russian
Default : No
Forced : No
Audio #10
ID : 11
Format : AC-3
Format/Info : Audio Coding 3
Mode extension : CM (complete main)
Format settings, Endianness : Big
Codec ID : A_AC3
Duration : 1 h 58 min
Bit rate mode : Constant
Bit rate : 448 kb/s
Channel(s) : 6 channels
Channel positions : Front: L C R, Side: L R, LFE
Sampling rate : 48.0 kHz
Frame rate : 31.250 FPS (1536 spf)
Bit depth : 16 bits
Compression mode : Lossy
Stream size : 378 MiB (4%)
Title : AVO (Kazakov)
Language : Russian
Default : No
Forced : No
Audio #11
ID : 12
Format : AC-3
Format/Info : Audio Coding 3
Mode extension : CM (complete main)
Format settings, Endianness : Big
Codec ID : A_AC3
Duration : 1 h 58 min
Bit rate mode : Constant
Bit rate : 640 kb/s
Channel(s) : 6 channels
Channel positions : Front: L C R, Side: L R, LFE
Sampling rate : 48.0 kHz
Frame rate : 31.250 FPS (1536 spf)
Bit depth : 16 bits
Compression mode : Lossy
Stream size : 540 MiB (6%)
Title : Original
Language : English
Default : No
Forced : No
Text #1
ID : 13
Format : UTF-8
Codec ID : S_TEXT/UTF8
Codec ID/Info : UTF-8 Plain Text
Duration : 1 h 51 min
Bit rate : 116 b/s
Count of elements : 1431
Stream size : 95.3 KiB (0%)
Title : West
Language : Russian
Default : No
Forced : No
Text #2
ID : 14
Format : UTF-8
Codec ID : S_TEXT/UTF8
Codec ID/Info : UTF-8 Plain Text
Duration : 1 h 51 min
Bit rate : 124 b/s
Count of elements : 1391
Stream size : 102 KiB (0%)
Title : Gavrilov
Language : Russian
Default : No
Forced : No
Text #3
ID : 15
Format : UTF-8
Codec ID : S_TEXT/UTF8
Codec ID/Info : UTF-8 Plain Text
Duration : 1 h 57 min
Bit rate : 157 b/s
Count of elements : 2056
Stream size : 135 KiB (0%)
Title : Stewie
Language : Russian
Default : No
Forced : No
Text #4
ID : 16
Format : UTF-8
Codec ID : S_TEXT/UTF8
Codec ID/Info : UTF-8 Plain Text
Duration : 1 h 56 min
Bit rate : 133 b/s
Count of elements : 1710
Stream size : 115 KiB (0%)
Title : sunny-sko
Language : Russian
Default : No
Forced : No
Text #5
ID : 17
Format : UTF-8
Codec ID : S_TEXT/UTF8
Codec ID/Info : UTF-8 Plain Text
Duration : 1 h 57 min
Bit rate : 83 b/s
Count of elements : 1898
Stream size : 71.7 KiB (0%)
Title : Original
Language : English
Default : No
Forced : No
Text #6
ID : 18
Format : UTF-8
Codec ID : S_TEXT/UTF8
Codec ID/Info : UTF-8 Plain Text
Duration : 1 h 57 min
Bit rate : 92 b/s
Count of elements : 2047
Stream size : 79.7 KiB (0%)
Title : Original (SDH)
Language : English
Default : No
Forced : No
Menu
00:00:00.000 : en:When the Drugs Began to Take Hold (Main Titles)
00:05:53.687 : en:24 Hours Ago...
00:10:34.676 : en:30 Minutes to Vegas
00:14:21.194 : en:Madness at the Mint
00:20:49.206 : en:Your Photographer
00:22:39.108 : en:The Sporting Press
00:27:22.683 : en:Stones, Ripped and Twisted
00:31:20.837 : en:The Perfect Drug for Vegas
00:35:24.539 : en:In the Vortex
00:38:54.582 : en:Menacing Vibrations
00:40:05.737 : en:The Woman in the Elevator
00:44:38.384 : en:Humping the American Dream
00:45:52.750 : en:Going Completely Sideways
00:52:23.182 : en:The Acid Wave
00:57:01.710 : en:Horrible Realities
01:01:22.846 : en:The Weasels are Closing In
01:06:12.719 : en:Stuck Inside of Baker
01:08:10.545 : en:The Pigs are Gathering in Vegas
01:12:29.804 : en:The Preternatural Courtship
01:19:37.606 : en:Inside the Possessed Mind
01:23:44.937 : en:The Last of Lucy
01:28:47.364 : en:Too Much Adrenochrome
01:33:06.247 : en:Grim Memories and Bad Flashbacks
01:38:02.085 : en:Welcome to the Happy Place
01:41:11.524 : en:The Sight of the Blade
01:47:03.083 : en:The Hard Way to the Airport
01:49:05.581 : en:One of God's Own Prototypes
01:50:17.361 : en:The Survival Trip
01:51:26.847 : en:Just Another Freak in the Freak Kingdom
01:52:17.981 : en:End Titles
x264 log
raw [info]: 1280x720p 1:1 @ 24000/1001 fps (cfr)
x264 [info]: using SAR=1/1
x264 [info]: using cpu capabilities: MMX2 SSE2Fast SSSE3 SSE4.2 AVX FMA3 AVX2 LZCNT BMI2
x264 [info]: profile High, level 4.1
x264 [info]: frame I:1208 Avg QP:14.35 size:136937
x264 [info]: frame P:37783 Avg QP:15.67 size: 60737
x264 [info]: frame B:130762 Avg QP:18.21 size: 23026
x264 [info]: consecutive B-frames: 1.6% 2.2% 9.9% 25.5% 19.8% 33.1% 4.7% 3.1%
x264 [info]: mb I I16..4: 3.7% 81.5% 14.8%
x264 [info]: mb P I16..4: 0.4% 17.3% 1.3% P16..4: 24.9% 36.0% 16.2% 0.0% 0.0% skip: 3.9%
x264 [info]: mb B I16..4: 0.0% 2.8% 0.1% B16..8: 32.3% 28.1% 6.1% direct: 6.8% skip:23.7% L0:39.9% L1:39.9% BI:20.2%
x264 [info]: 8x8 transform intra:91.1% inter:55.9%
x264 [info]: direct mvs spatial:100.0% temporal:0.0%
x264 [info]: coded y,uvDC,uvAC intra: 96.5% 94.7% 84.6% inter: 33.3% 29.5% 8.9%
x264 [info]: i16 v,h,dc,p: 30% 7% 5% 58%
x264 [info]: i8 v,h,dc,ddl,ddr,vr,hd,vl,hu: 8% 8% 9% 10% 14% 13% 13% 12% 14%
x264 [info]: i4 v,h,dc,ddl,ddr,vr,hd,vl,hu: 8% 6% 4% 9% 18% 16% 15% 12% 13%
x264 [info]: i8c dc,h,v,p: 46% 19% 17% 18%
x264 [info]: Weighted P-Frames: Y:6.3% UV:4.9%
x264 [info]: ref P L0: 48.8% 11.8% 16.5% 5.9% 5.2% 3.6% 3.6% 2.1% 2.4% 0.2% 0.0%
x264 [info]: ref B L0: 81.3% 8.8% 3.8% 2.1% 1.5% 1.3% 0.8% 0.3%
x264 [info]: ref B L1: 96.4% 3.6%
x264 [info]: kb/s:6182.05
encoded 169753 frames, 7.63 fps, 6182.06 kb/s
Скриншоты
Зарегистрирован:
  • 25-Фев-17 14:34
  • Скачан: 3,161 раз

Скачать .torrent

47 KB

Тип: обычная
Статус: * не проверено
Размер: 9.27 GB  ·  magnetF7BCD6EDD3200DC757B6E2E1607CB15D2B7022CA
  • Свернуть поддиректории
  • Развернуть
  • Переключить
  • Увел./умен. окно
загружается...

Club-life

Top Bonus 04* 3TB

Стаж: 10 лет 7 месяцев

Сообщений: 185

flag

Club-life · 25-Фев-17 14:44 (спустя 9 мин.)

DDSH
Красиво ! А исходник будете заливать ?

DDSH

Стаж: 10 лет 5 месяцев

Сообщений: 187

flag

DDSH · 25-Фев-17 14:52 (спустя 7 мин.)

Club-life
исходник гибридный, так что нет. Возможно сделаю 1080p рип с высоким битрейтом и более детализированной картинкой, если с этой раздачей все будет ОК, а также бюджетный AVC-рип.

Selena_a

Фильмографы

Стаж: 8 лет 7 месяцев

Сообщений: 2242

flag

Selena_a · 25-Фев-17 19:54 (спустя 5 часов, ред. 25-Фев-17 19:54)

Позитив-Мультимедиа вроде есть)) и какой-то непонятный Алексей "MrRose" Наследников (по переводу stevvie)
Гарри Дин Стэнтон это да!
Гари Бьюзи это нет, он Гэри.

Jiraya87

Стаж: 8 лет

Сообщений: 492

flag

Jiraya87 · 26-Фев-17 13:41 (спустя 17 часов, ред. 26-Фев-17 13:41)

Selena_a писал(а):
72565338какой-то непонятный Алексей "MrRose" Наследников (по переводу stevvie)
он не непонятный,а реально крутой переводчик.
Он очень хорошо переводит и озвучивает фильмы.
Авторский Перевод Будет Жить Вечно.

Dinamitik

Стаж: 10 лет 9 месяцев

Сообщений: 43


Dinamitik · 26-Фев-17 16:30 (спустя 2 часа 49 мин.)

Кто-нибудь знает, какую задержку выставлять для дорог, взятых с bdrip?
Всё, что ни сделано, всё к лучшему

DDSH

Стаж: 10 лет 5 месяцев

Сообщений: 187

flag

DDSH · 26-Фев-17 17:41 (спустя 1 час 11 мин.)

Dinamitik
зависит от издания. Если criterion (соответствующая заставка в начале), то -13013ms, для других -42ms.

- Джон Коннор -

Стаж: 9 лет 10 месяцев

Сообщений: 4207

flag

- Джон Коннор - · 26-Фев-17 19:21 (спустя 1 час 40 мин.)

Club-life писал(а):
72563366DDSH
Спасибо. Тогда подожду 1080р рип.
Пожалуй тоже подожду 1080р рипчик

Dinamitik

Стаж: 10 лет 9 месяцев

Сообщений: 43


Dinamitik · 26-Фев-17 20:12 (спустя 50 мин.)

DDSH писал(а):
72572310Dinamitik
зависит от издания. Если criterion (соответствующая заставка в начале), то -13013ms, для других -42ms.
Благодарю.
Всё, что ни сделано, всё к лучшему

DDSH

Стаж: 10 лет 5 месяцев

Сообщений: 187

flag

DDSH · 07-Мар-17 11:02 (спустя 8 дней)

1080p: http://GOSTRACKER.XYZ/viewtopic.php?t=5368667

- Джон Коннор -

Стаж: 9 лет 10 месяцев

Сообщений: 4207

flag

- Джон Коннор - · 07-Мар-17 12:40 (спустя 1 час 38 мин.)

DDSH писал(а):
спасибо за подгон
скрытый текст
ночью скачаю, днём не могу скорость забивать)

mihl zero

Стаж: 6 лет 2 месяца

Сообщений: 44

flag

mihl zero · 03-Янв-18 14:12 (спустя 9 месяцев)

отличный фильм и озвучка очень хорошая ,Депп тут круто сыграл ,еще фильм кокаин с его участием тоже классный.

Alizeeee

Стаж: 8 лет 2 месяца

Сообщений: 10


Alizeeee · 03-Июл-18 19:44 (спустя 6 месяцев)

mihl zero писал(а):
74532253отличный фильм и озвучка очень хорошая ,Депп тут круто сыграл ,еще фильм кокаин с его участием тоже классный.
плюсую!

shonni

Стаж: 10 лет 1 месяц

Сообщений: 125

flag

shonni · 14-Ноя-18 11:35 (спустя 4 месяца 10 дней)

Гланц советует смотреть этот фильм в Гаврилове!
https://youtu.be/58vkKvH37jw?t=1186
 
All rights reserved © 2017-2018
Loading...
Error