Служащий Кинтаро / Salaryman Kintarou [TV] [20 из 20] [Без хардсаба] [RUS(int), JAP, SUB] [2001, комедия, драма, повседневность, DVDRip]

Статистика раздачи
Размер:  3.7 GB   |   Зарегистрирован:  27 дней   |   .torrent скачан:  53 раза
Сиды:  3
Автор
Сообщение

CCNA

Стаж: 11 лет 1 месяц

Сообщений: 71

flag

CCNA · 18-Ноя-18 00:14 (27 дней назад, ред. 13-Дек-18 17:31)

 

Служащий Кинтаро / Salaryman Kintarou
Страна: Япония
Год выпуска: 2001
Жанр: комедия, драма, повседневность
Тип: TV
Продолжительность: 20 эп. по 25 мин.
Режиссер: Кацумата Томохару
Студия: JCF
Описание: Американская мечта - это приехал с одним долларом в кармане, открыть свое дело и стать миллиардером. А вот японская мечта она другая - поступить на службу в крупную компанию и дослужится в ней до главы компании. Вот собственно об этой японской мечте данный сериал. И вся суть в том, что биография главного героя отнють не способствует этой мечте: отец героя - осужденный за убийство преступник, сам герой выпускник третьесортного колледжа, лидер банды байкеров и в довершении ко всему был судим. С такой биографией есть только одна организациия, в которой главному герою светит неплохая карьера - якудза. Но судьба к герою блгосклонна (порой даже слишком), и благодаря случаю он становится служащим в преуспевающей крупной строительной фирме.
Качество: DVDRip
Автор рипа: Ra-C
Тип релиза: Без хардсаба
Формат видео: MKV
Совместимость с бытовыми плеерами: Нет
Видео: 640x360, 841 Кбит/сек, XviD, 8 bits, 24.254 fps
Аудио: 120 Кбит/сек, 48 kHz, 2 канала, Vorbis Язык Русский (в составе контейнера) ; Озвучка: Kallaider (муж., одноголосая); Группа: OldFQ
Аудио 2: 120 Кбит/сек, 48 kHz,, 2 канала, Vorbis Язык Японский
Субтитры: встроенные отключаемые Язык субтитров русский ; Формат: SRT ; Перевод: tadeus
Подробные тех. данные
General
Unique ID : 212707060302243843948191639832680278651 (0xA005E3C230DBDBDA2F36597411E92A7B)
Complete name : Salaryman Kintaro/02. Kintaro Fights.mkv
Format : Matroska
Format version : Version 4 / Version 2
File size : 189 MiB
Duration : 25mn 3s
Overall bit rate mode : Variable
Overall bit rate : 1 055 Kbps
Encoded date : UTC 2018-11-17 15:35:32
Writing application : mkvmerge v8.8.0 ('Wind at my back') 64bit
Writing library : libebml v1.3.3 + libmatroska v1.4.4
Attachments : Gyosho.ttf
Video
ID : 1
Format : MPEG-4 Visual
Format profile : Advanced Simple@L5
Format settings, BVOP : 2
Format settings, QPel : Yes
Format settings, GMC : No warppoints
Format settings, Matrix : Default (H.263)
Muxing mode : Packed bitstream
Codec ID : V_MS/VFW/FOURCC / XVID
Codec ID/Hint : XviD
Duration : 25mn 3s
Bit rate : 841 Kbps
Width : 640 pixels
Height : 360 pixels
Display aspect ratio : 16:9
Frame rate mode : Variable
Frame rate : 24.254 fps
Original frame rate : 29.970 fps
Color space : YUV
Chroma subsampling : 4:2:0
Bit depth : 8 bits
Scan type : Progressive
Compression mode : Lossy
Bits/(Pixel*Frame) : 0.150
Stream size : 151 MiB (80%)
Title : Salaryman Kintaro 02
Writing library : XviD 1.1.0 (UTC 2005-11-22)
Language : Japanese
Default : Yes
Forced : No
Audio #1
ID : 2
Format : Vorbis
Format settings, Floor : 1
Codec ID : A_VORBIS
Duration : 25mn 3s
Bit rate mode : Variable
Bit rate : 120 Kbps
Channel(s) : 2 channels
Sampling rate : 48.0 KHz
Frame rate : 64.211 fps (748 spf)
Compression mode : Lossy
Stream size : 17.9 MiB (9%)
Title : rus audio (Kallaider)
Writing application : Lavc56.60.100 libvorbis
Writing library : Lavf56.40.101
Language : Russian
Default : Yes
Forced : No
Audio #2
ID : 3
Format : Vorbis
Format settings, Floor : 1
Codec ID : A_VORBIS
Duration : 25mn 2s
Bit rate mode : Variable
Bit rate : 120 Kbps
Channel(s) : 2 channels
Sampling rate : 48.0 KHz
Frame rate : 59.272 fps (810 spf)
Compression mode : Lossy
Stream size : 19.6 MiB (10%)
Title : 2.0
Writing application : Lavc56.60.100 libvorbis
Writing library : Lavf56.40.101
Language : Japanese
Default : No
Forced : No
Text #1
ID : 4
Format : ASS
Codec ID : S_TEXT/ASS
Codec ID/Info : Advanced Sub Station Alpha
Duration : 4s 380ms
Bit rate : 53.3 Kbps
Count of elements : 260
Compression mode : Lossless
Stream size : 28.5 KiB (0%)
Title : intro
Language : Russian
Default : Yes
Forced : Yes
Text #2
ID : 5
Format : UTF-8
Codec ID : S_TEXT/UTF8
Codec ID/Info : UTF-8 Plain Text
Duration : 23mn 19s
Bit rate : 118 bps
Count of elements : 341
Stream size : 20.2 KiB (0%)
Language : Russian
Default : No
Forced : No
Список эпизодов
01. Kintaro Enters the Company
02. Kintaro Fights
03. Kintaro Steals a Girl's Heart
04. Kintaro Runs Wild
05. Kintaro Becomes Very Popular
06. The Crucial Moment for Men
07. Kintaro Snaps
08. Kintaro Doesn't Impress Me
09. Kintaro Falls in Love With Misuzu
10. Kintaro Takes His Orders From the Company
11. Kintaro Tightens Control of the Site
12. Kintaro Follows Through
13. Kintaro Returns Home
14. Kintaro Connects People
15. Kintaro Transferred
16. Kintaro Works In Sales
17. Kintaro Prearranges Bidding
18. Dark Fog in Kahoku
19. Kintaro Writes a Letter of Resignation
20. Kintaro Becomes Unruly
Скриншоты
Зарегистрирован:
  • 18-Ноя-18 00:14
  • Скачан: 53 раза

Скачать .torrent

38 KB

Тип: обычная
Статус: ? недооформлено
Размер: 3.7 GB  ·  magnetB2DE927E54B36C75D7C24258645614987D940A27
  • Свернуть поддиректории
  • Развернуть
  • Переключить
  • Увел./умен. окно
загружается...

crashtsd

Стаж: 10 лет 8 месяцев

Сообщений: 3

flag

crashtsd · 18-Ноя-18 20:47 (спустя 20 часов)

Раздаваться будет?
0,8 Kb/s как-то не смешно.

cr24

Стаж: 8 лет 9 месяцев

Сообщений: 2216

flag

cr24 · 21-Ноя-18 15:51 (спустя 2 дня 19 часов)

CCNA Спасибо Большое за отличную анимэшку )))

Zаbr

Помощник модератора

Стаж: 4 года 9 месяцев

Сообщений: 3090

flag

Zаbr · 11-Дек-18 20:52 (спустя 20 дней)

CCNA писал(а):
76339171Качество: DVDRip
судя по ТД автор рипа Ra-C, допишите
CCNA писал(а):
76339171Видео: 640x360, 841 Кбит/сек, XviD
допишите битность и фпс
CCNA писал(а):
76339171Субтитры: встроенные отключаемые Язык субтитров русский ; Формат: SRT ; Перевод: tadeus
в контейнере ещё есть ass сабы, допишите инфу и про них
?недооформлено
Практически полностью отсутствую. Все будет как только, так сразу.


Finally done: Rewrite (Full), Fairy Tail (TV 2), Umaru (TV 2)
Hot ongoings: Gintama (TV 5), Souma (OVA)
Plan to do: Sister Princess (Full), Galaxy Angel (Full), Aria (Full), Bakuman (Full)
мои раздачи

CCNA

Стаж: 11 лет 1 месяц

Сообщений: 71

flag

CCNA · 13-Дек-18 17:36 (спустя 1 день 20 часов)

Zаbr писал(а):
76481359
CCNA писал(а):
76339171Качество: DVDRip
судя по ТД автор рипа Ra-C, допишите
CCNA писал(а):
76339171Видео: 640x360, 841 Кбит/сек, XviD
допишите битность и фпс
CCNA писал(а):
76339171Субтитры: встроенные отключаемые Язык субтитров русский ; Формат: SRT ; Перевод: tadeus
в контейнере ещё есть ass сабы, допишите инфу и про них
?недооформлено
добавил.
в ass просто анимированое название группы которое отображается вначале серий. Есть ли смысл добавлять информацию об этом в раздаче?
 
All rights reserved © 2017-2018
Loading...
Error