[ANIME4PS3]Детское время/Kodomo no Jikan [Суганума Эйдзи] [2007, комедия, романтика, эротика, DVD Upconvert]

Статистика раздачи
Размер:  4.12 GB   |   Зарегистрирован:  9 лет 6 месяцев   |   .torrent скачан:  850 раз

Полный источник: был сегодня

Автор
Сообщение

Олег Роде

Стаж: 11 лет 3 месяца

Сообщений: 208

flag

Олег Роде · 01-Май-09 12:11 (9 лет 6 месяцев назад, ред. 01-Май-09 23:29)

 

[ANIME4PS3]Детское время/Kodomo no Jikan [Суганума Эйдзи ] [2007 г., комедия, романтика, эротика, DVD Upconvert]
Год выпуска: 2007
Страна: Япония
Жанр: комедия, романтика, эротика
Продолжительность: ТВ (12 эп.) + OVA , 25 мин
Перевод: двухголосый закадровый перевод (OVA - одноголосый), субтитры
Режиссер: Суганума Эйдзи
Описание:
В школу приходит новый учитель - Аоки Дайсукэ.
В 3-м классе начальной школы, где он преподаёт, учатся три девочки -
Коконоэ Рин, Кагами Куро и Уса Мими.
Им примерно 9-10 лет. Рин сразу же берёт учителя в "оборот":
- Учитель, а вы женаты?
- Нет.
- А девушка у вас есть?
- Нет.
- Отлично! Значит, я ей и буду!
А потом начинается развитие этой смешной истории,
в которой так до конца и не понимаешь: в шутку она это сказала или всерьёз.
Качество: DVDRip Upconvert
Формат: MP4
Видео кодек: H.264
Аудио кодек: AAC
Видео: H264, 1280x720 , 1499 Кбит/сек, 23.976 кадр/сек, H.264
Аудио1: RU - AAC, ~138 Кбит/сек, 48 КГц, 2 каналы
Аудио2: JP - AAC, ~253 Кбит/сек, 48 КГц, 2 каналы
Субтитры: хардсаб
Фансабер: PP&Kuroyami
Примечания к релизу:
Данный релиз является не более чем просто грамотным ремуксом (не реконвертом!) вот этого и вот этого релизов, основной перевод - русский войсовер, но также имеется оригинальная дорожка. Релиз составлялся как универсал PS3/XBOX360, однако всвязи с отсутствием у меня XBOX360 - проверить не на чем. У кого есть - прошу качнуть хотя бы одну серию и отписаться. ВНИМАНИЕ Для правильного отображения субтитров необходимо включить в телевизоре режим экрана "точка-в-точку", у ТВ фирмы Samsung этот режим называется "Точное отображение", у ТВ фирмы Sony - "Максимальное разрешение"
Крайне нужны личеры из для обеспечения нормальной скорости раздачи
MediaInfo
Код:
General
Complete name                    : E:\Kodomo no Jikan\[PP&Kuroyami]Kodomo_no_Jikan_-_01[RUS][DVD][h264_1280x720][C97F1413].mp4
Format                           : MPEG-4
Format profile                   : Base Media
Codec ID                         : isom
File size                        : 307 MiB
Duration                         : 23mn 31s
Overall bit rate                 : 1826 Kbps
Encoded date                     : UTC 2009-04-10 08:02:43
Tagged date                      : UTC 2009-04-10 08:02:43
Video
Format                           : AVC
Format/Info                      : Advanced Video Codec
Format profile                   : High@L4.1
Format settings, CABAC           : Yes
Format settings, ReFrames        : 5 frames
Codec ID                         : avc1
Duration                         : 23mn 31s
Bit rate mode                    : Variable
Bit rate                         : 1503 Kbps
Maximum bit rate                 : 5197 Kbps
Width                            : 1280 pixels
Height                           : 720 pixels
Display aspect ratio             : 16/9
Frame rate mode                  : Constant
Frame rate                       : 23.976 fps
Colorimetry                      : 4:2:0
Scan type                        : Progressive
Bits/(Pixel*Frame)               : 0.068
Stream size                      : 253 MiB (82%)
Encoded date                     : UTC 2009-04-10 08:02:43
Tagged date                      : UTC 2009-04-10 08:09:17
Audio #1
Format                           : AAC
Format/Info                      : Advanced Audio Codec
Format version                   : Version 4
Format profile                   : LTP
Codec ID                         : 40
Duration                         : 23mn 30s
Bit rate mode                    : Variable
Bit rate                         : 138 Kbps
Maximum bit rate                 : 184 Kbps
Channel(s)                       : 2 channels
Channel positions                : L R
Sampling rate                    : 44.1 KHz
Resolution                       : 16 bits
Stream size                      : 23.1 MiB (8%)
Encoded date                     : UTC 2009-04-10 08:05:50
Tagged date                      : UTC 2009-04-10 08:09:17
Audio #2
Format                           : AAC
Format/Info                      : Advanced Audio Codec
Format version                   : Version 4
Format profile                   : LC
Format settings, SBR             : No
Codec ID                         : 40
Duration                         : 16mn 46s
Bit rate mode                    : Variable
Bit rate                         : 253 Kbps
Maximum bit rate                 : 262 Kbps
Channel(s)                       : 2 channels
Channel positions                : L R
Sampling rate                    : 48.0 KHz
Resolution                       : 16 bits
Stream size                      : 30.4 MiB (10%)
Encoded date                     : UTC 2009-04-10 08:07:55
Tagged date                      : UTC 2009-04-10 08:09:17
Скриншоты
Зарегистрирован:
  • 01-Май-09 12:11
  • Скачан: 850 раз

Скачать .torrent

22 KB

Тип: обычная
Статус: проверено
Размер: 4.12 GB  ·  magnet86C7AAF179A62AC0A7975017D2A04C79C6AA31CD
  • Свернуть поддиректории
  • Развернуть
  • Переключить
  • Увел./умен. окно
загружается...

C00P

VIP (Заслуженный)

Стаж: 11 лет 7 месяцев

Сообщений: 2964

flag

C00P · 01-Май-09 18:44 (спустя 6 часов, ред. 01-Май-09 18:44)

Переоформить согласно шаблону http://GOSTRACKER.XYZ/viewtopic.php?t=1777894

Олег Роде

Стаж: 11 лет 3 месяца

Сообщений: 208

flag

Олег Роде · 01-Май-09 23:00 (спустя 4 часа)

Так пойдет?

C00P

VIP (Заслуженный)

Стаж: 11 лет 7 месяцев

Сообщений: 2964

flag

C00P · 20-Май-09 16:09 (спустя 18 дней)

Олег Роде писал(а):
Так пойдет?
шаблон то хоть посмотрели? и рядом не стоит.

maklik77

Стаж: 10 лет 7 месяцев

Сообщений: 17

flag

maklik77 · 13-Сен-09 13:06 (спустя 3 месяца 23 дня)

Госпада сидеры , будьте любезны дайте скорости, отключите ограничения!

onish

Стаж: 9 лет 3 месяца

Сообщений: 67

flag

onish · 25-Дек-09 13:24 (спустя 3 месяца 12 дней, ред. 25-Дек-09 19:24)

спасиб за сериал в ХД качестве
ктонибуть, станьте на раздачю, пожалуйста

Тохофаг

Top Loader 02* 300GB

Стаж: 9 лет

Сообщений: 640

flag

Тохофаг · 14-Сен-10 00:10 (спустя 8 месяцев)

Хм. В первой же серии японская озвучка обрезана на 16:46. Это фэйл! >_<
Какой смысл прилеплять русский бубняж первой дорожкой, да ещё и без идентификаторов языков, если хардсаб? Всё пересобирать...... >_<

Олег Роде

Стаж: 11 лет 3 месяца

Сообщений: 208

flag

Олег Роде · 20-Фев-11 02:13 (спустя 5 месяцев 6 дней)

Rise_of_Phoenix писал(а):
Хм. В первой же серии японская озвучка обрезана на 16:46. Это фэйл! >_<
Какой смысл прилеплять русский бубняж первой дорожкой, да ещё и без идентификаторов языков, если хардсаб? Всё пересобирать...... >_<
Няша, не плачь. Проблема судя по всему только в первой серии. Обязательно исправлю и в награду допилю второй сезон.

Sergeistar1

Стаж: 6 лет 4 месяца

Сообщений: 34

Sergeistar1 · 14-Июн-16 20:38 (спустя 5 лет 3 месяца)

Не хочет качать.
С инетом все в порядке.
 
All rights reserved © 2017-2018
Loading...
Error