(JPop) Reiko Ike - 恍惚の世界 / Kokotsu no sekai / World Of Ectasy - 1971, FLAC (tracks+.cue), lossless

Статистика раздачи
Размер:  190 MB   |   Зарегистрирован:  1 год 6 месяцев   |   .torrent скачан:  227 раз
Сиды:  1   Личи:  2
Автор
Сообщение

mithridat

Top Seed 01* 40r

Стаж: 11 лет 6 месяцев

Сообщений: 597

mithridat · 25-Дек-09 11:16 (8 лет 11 месяцев назад, ред. 21-Май-17 19:45)

 

Reiko Ike - Kokotsu no sekai
Жанр: JPop,porno.pop
Год выпуска диска: 1971 (2005)
Производитель диска: Japan,Tiliqua Records
Catalogue Number: TILAR-5002
Аудио кодек: FLAC
Тип рипа: tracks+.cue
Битрейт аудио: lossless
Продолжительность: 35:07
Трэклист:
1. 女はそれをがまんできない / Onna Wa Sore O Gaman Dekinai (3:20)
2. よこはま たそがれ / Yokohama Tasogare (2:47)
3. めまい / Memai (Shiseikatsu) (2:37)
4. 雨がやんだら / Ame Ga Yandara (3:03)
5. 夜明けのスキャット / Yoake No Scat (3:03)
6. さすらいのギター / Sasurai No Guitar (2:43)
7. 私という女 / Watashi To Iu Na No Onna (2:40)
8. 雨の日のブルース / Ame No Hi No Blues (3:08)
9. 恋の奴隷 / Koi No Dorei (2:55)
10. 経験 / Keiken (2:40)
11. 天使になれない / Tenshi Ni Narenai (2:49)
12. 愛のきずな / Ai No Kizuna (3:22)
Ikeda Reiko - японская певица и актриса жанра pinku eiga (что-то вроде жесткой эротики с обилием крови и насилия) 70-ых годов прошлого века.
В 1971 она записала альбом “Kokotsu no Sekai”. Несмотря на нежный возраст (ей только что исполнилось 17), Ike превратила альбом обычных песен в беспрецедентный поток эротики и греховности.Ее сладкий вокал проникает в уши с ангельской легкостью. Контраст с ее образом на экране просто поразителен.С микрофоном в руке Ike превратилась в серебряную, нежную, звонкую нимфу. Ее эротическим присутствием пронизано множество невербальных образов – стоны и крики экстаза, приглушенный возбужденный шепот и ворчание самки во время течки. Ike поет мягким голосом о сексе,искушении и покорной любви. Весь альбом пронизан уникальной атмосферой горячей японской эротики, сейчас, увы, вытесненной западной продукцией.
Альбом был переиздан в 2005 году.
Информация с сайта fenixclub.com
Еще 2 песни в исполнении Reiko Ike можно найти на сборнике Yakeppachi Rock (2006)
Больше информации о релизе https://www.discogs.com/池玲子-恍惚の世.../release/1213343
Лог создания рипа
Exact Audio Copy V0.99 prebeta 3 from 28. July 2007
EAC extraction logfile from 26. December 2009, 0:11
Ike Reiko / Kokotsu No Sekai (The Ecstatic World Of Ike Reiko)
Used drive : Optiarc DVD RW AD-7203A Adapter: 1 ID: 1
Read mode : Secure
Utilize accurate stream : Yes
Defeat audio cache : Yes
Make use of C2 pointers : No
Read offset correction : 48
Overread into Lead-In and Lead-Out : No
Fill up missing offset samples with silence : Yes
Delete leading and trailing silent blocks : No
Null samples used in CRC calculations : Yes
Used interface : Native Win32 interface for Win NT & 2000
Gap handling : Appended to previous track
Used output format : User Defined Encoder
Selected bitrate : 768 kBit/s
Quality : High
Add ID3 tag : No
Command line compressor : D:\Program Files\Exact Audio Copy\Flac\flac.exe
Additional command line options : -8 -V -T "ARTIST=%a" -T "TITLE=%t" -T "ALBUM=%g" -T "DATE=%y" -T "TRACKNUMBER=%n" -T "GENRE=%m" -T "COMMENT=EAC FLAC -8" %s
TOC of the extracted CD
Track | Start | Length | Start sector | End sector
---------------------------------------------------------
1 | 0:00.00 | 3:20.38 | 0 | 15037
2 | 3:20.38 | 2:47.37 | 15038 | 27599
3 | 6:08.00 | 2:37.00 | 27600 | 39374
4 | 8:45.00 | 3:03.38 | 39375 | 53137
5 | 11:48.38 | 3:03.37 | 53138 | 66899
6 | 14:52.00 | 2:43.38 | 66900 | 79162
7 | 17:35.38 | 2:40.37 | 79163 | 91199
8 | 20:16.00 | 3:08.38 | 91200 | 105337
9 | 23:24.38 | 2:55.00 | 105338 | 118462
10 | 26:19.38 | 2:40.00 | 118463 | 130462
11 | 28:59.38 | 2:49.00 | 130463 | 143137
12 | 31:48.38 | 3:22.37 | 143138 | 158324
Track 1
Filename D:\EAC Rips\01 - Onna Wa Sore O Gaman Dekinai.wav
Pre-gap length 0:00:02.00
Peak level 99.8 %
Track quality 100.0 %
Test CRC 2A1D1FE3
Copy CRC 2A1D1FE3
Accurately ripped (confidence 1) [C5CE0428]
Copy OK
Track 2
Filename D:\EAC Rips\02 - Yokohama Tasogar.wav
Peak level 99.8 %
Track quality 100.0 %
Test CRC BB4FC3B6
Copy CRC BB4FC3B6
Accurately ripped (confidence 1) [D099B7EB]
Copy OK
Track 3
Filename D:\EAC Rips\03 - Memai (Shiseikatsu).wav
Peak level 99.9 %
Track quality 100.0 %
Test CRC 3A31A8B6
Copy CRC 3A31A8B6
Accurately ripped (confidence 1) [E2995708]
Copy OK
Track 4
Filename D:\EAC Rips\04 - Ame Ga Yandara.wav
Peak level 99.9 %
Track quality 100.0 %
Test CRC FE6FBFCE
Copy CRC FE6FBFCE
Accurately ripped (confidence 1) [DD2D7217]
Copy OK
Track 5
Filename D:\EAC Rips\05 - Yoake No Scat.wav
Peak level 99.9 %
Track quality 100.0 %
Test CRC 156551F6
Copy CRC 156551F6
Accurately ripped (confidence 1) [9060C8B7]
Copy OK
Track 6
Filename D:\EAC Rips\06 - Sasurai No Guitar.wav
Peak level 99.9 %
Track quality 100.0 %
Test CRC E24FA7E0
Copy CRC E24FA7E0
Accurately ripped (confidence 1) [EA3F7EB3]
Copy OK
Track 7
Filename D:\EAC Rips\07 - Watashi To Iu Na No Onna.wav
Peak level 99.9 %
Track quality 100.0 %
Test CRC 5FAD086B
Copy CRC 5FAD086B
Accurately ripped (confidence 1) [A5476173]
Copy OK
Track 8
Filename D:\EAC Rips\08 - Ame No Hi No Blues.wav
Peak level 100.0 %
Track quality 100.0 %
Test CRC F5EA528E
Copy CRC F5EA528E
Accurately ripped (confidence 1) [12253AD7]
Copy OK
Track 9
Filename D:\EAC Rips\09 - Koi No Dorei.wav
Peak level 99.9 %
Track quality 99.9 %
Test CRC 13594621
Copy CRC 13594621
Accurately ripped (confidence 1) [0E91CDB2]
Copy OK
Track 10
Filename D:\EAC Rips\10 - Keiken.wav
Peak level 99.9 %
Track quality 100.0 %
Test CRC 85233008
Copy CRC 85233008
Accurately ripped (confidence 1) [13691CF3]
Copy OK
Track 11
Filename D:\EAC Rips\11 - Tenshi Ni Narenai.wav
Peak level 99.9 %
Track quality 99.9 %
Test CRC 49ACABC3
Copy CRC 49ACABC3
Accurately ripped (confidence 1) [A001BC3E]
Copy OK
Track 12
Filename D:\EAC Rips\12 - Ai No Kizuna.wav
Peak level 99.9 %
Track quality 100.0 %
Test CRC A1EC8FBA
Copy CRC A1EC8FBA
Accurately ripped (confidence 1) [85EFFD24]
Copy OK
All tracks accurately ripped
No errors occurred
End of status report
Содержание индексной карты (.CUE)
TITLE "Kokotsu No Sekai (The Ecstatic World Of Ike Reiko) (Tiliqua)"
PERFORMER "Reiko Ike"
REM GENRE "Pop"
REM DATE 1971
FILE "01 - Onna Wa Sore O Gaman Dekinai.wav" WAVE
TRACK 01 AUDIO
TITLE "Onna Wa Sore O Gaman Dekinai"
ISRC JPTE07124640
INDEX 01 00:00:00
FILE "02 - Yokohama Tasogar.wav" WAVE
TRACK 02 AUDIO
TITLE "Yokohama Tasogar"
ISRC JPTE07124650
INDEX 01 00:00:00
FILE "03 - Memai (Shiseikatsu).wav" WAVE
TRACK 03 AUDIO
TITLE "Memai (Shiseikatsu)"
ISRC JPTE07124660
INDEX 01 00:00:00
FILE "04 - Ame Ga Yandara.wav" WAVE
TRACK 04 AUDIO
TITLE "Ame Ga Yandara"
ISRC JPTE07124670
INDEX 01 00:00:00
FILE "05 - Yoake No Scat.wav" WAVE
TRACK 05 AUDIO
TITLE "Yoake No Scat"
ISRC JPTE07124680
INDEX 01 00:00:00
FILE "06 - Sasurai No Guitar.wav" WAVE
TRACK 06 AUDIO
TITLE "Sasurai No Guitar"
ISRC JPTE07124690
INDEX 01 00:00:00
FILE "07 - Watashi To Iu Na No Onna.wav" WAVE
TRACK 07 AUDIO
TITLE "Watashi To Iu Na No Onna"
ISRC JPTE07124700
INDEX 01 00:00:00
FILE "08 - Ame No Hi No Blues.wav" WAVE
TRACK 08 AUDIO
TITLE "Ame No Hi No Blues"
ISRC JPTE07124710
INDEX 01 00:00:00
FILE "09 - Koi No Dorei.wav" WAVE
TRACK 09 AUDIO
TITLE "Koi No Dorei"
ISRC JPTE07124720
INDEX 01 00:00:00
FILE "10 - Keiken.wav" WAVE
TRACK 10 AUDIO
TITLE "Keiken"
ISRC JPTE07124730
INDEX 01 00:00:00
FILE "11 - Tenshi Ni Narenai.wav" WAVE
TRACK 11 AUDIO
TITLE "Tenshi Ni Narenai"
ISRC JPTE07124740
INDEX 01 00:00:00
FILE "12 - Ai No Kizuna.wav" WAVE
TRACK 12 AUDIO
TITLE "Ai No Kizuna"
ISRC JPTE07124750
INDEX 01 00:00:00
Зарегистрирован:
  • 21-Май-17 19:38
  • Скачан: 227 раз

Скачать .torrent

17 KB

Тип: обычная
Статус: проверено
Размер: 190 MB  ·  magnet3DE58179098C4F6F0DB5A9635DC152875B0A989D
  • Свернуть поддиректории
  • Развернуть
  • Переключить
  • Увел./умен. окно
загружается...

bruk67

VIP (Заслуженный)

Стаж: 10 лет 2 месяца

Сообщений: 8097

flag

bruk67 · 25-Дек-09 19:23 (спустя 8 часов, ред. 25-Дек-09 19:23)

Цитата:
Use cdparanoia mode : YES (CDParanoia III 10.2 engine)
1.3.4 Запрещается оформление lossless-раздач, в которых при снятии рипа использовались режимы Burst (Скоростной) и Paranoid (Параноидальный). Допустимыми являются только раздачи, снятые в режиме Secure (Достоверный).
Пожалуйста, переснимите рип с новыми настройками и перезалейте торрент.
Инструкция. Как правильно настроить EAC и снять рип (PDF)

bruk67

VIP (Заслуженный)

Стаж: 10 лет 2 месяца

Сообщений: 8097

flag

bruk67 · 26-Дек-09 20:49 (спустя 1 день 1 час)

mithridat
Перед началом рипа, не забываем определять зазоры, нажатием F4.
Также, должна стоять эта галочка:
скрытый текст

mithridat

Top Seed 01* 40r

Стаж: 11 лет 6 месяцев

Сообщений: 597

mithridat · 26-Дек-09 22:39 (спустя 1 час 49 мин.)

Во первых,прегапы я определял и из текста лога это очевидно.
С галочкой тоже все в порядке
Цитата:
Gap handling : Appended to previous track

bruk67

VIP (Заслуженный)

Стаж: 10 лет 2 месяца

Сообщений: 8097

flag

bruk67 · 26-Дек-09 22:46 (спустя 6 мин.)

На заметку
Недокументированный тег pre: Возможности и применение
Цитата:
В нашем с вами распоряжении появился тег pre, позволяющий делать логи EAC более читабельными. Тег является не документированным. Особенность его состоит в том, что служебные символы и пробелы не выкидываются, сохраняется исходное форматирование (для nfo). Рекомендуемая область применения: лог EAC и nfo
Для того чтобы использовать тег оформляйте свои спойлеры по следующему шаблону
Код:
[spoiler="Лог EAC"][pre]Содержимое лога или nfo[/pre][/spoiler]

lukkon

Стаж: 10 лет 7 месяцев

Сообщений: 314

flag

lukkon · 31-Янв-10 09:11 (спустя 1 месяц 4 дня, ред. 08-Май-10 11:54)

Спасибо, добрый ЧЕЛОВЕК.
Давно искал в нормальном качестве и полиграфией.
На азиатских сайтах находил, но ссылки умерли из-за сроков давности.

GATER

Стаж: 9 лет 7 месяцев

Сообщений: 241

flag

GATER · 21-Авг-10 19:00 (спустя 6 месяцев)

это уже изза одной только обложки надо скачать
Будьте людьми! Оставайтесь на раздачах как можно дольше! С уважением GATER

neyr200

Стаж: 9 лет 2 месяца

Сообщений: 75

flag

neyr200 · 16-Янв-11 07:19 (спустя 4 месяца 25 дней)

Кто знает что еще в таком жанре есть ??

timosha-sha

Top Seed 03* 160r

Стаж: 10 лет 2 месяца

Сообщений: 1871

timosha-sha · 06-Фев-11 20:50 (спустя 21 день)

Спасибо, крутецкий альбом !!!!!!!!
Порекомендуйте ещё японских певиц 70-80-х.

mithridat

Top Seed 01* 40r

Стаж: 11 лет 6 месяцев

Сообщений: 597

mithridat · 13-Фев-11 13:48 (спустя 6 дней, ред. 13-Фев-11 14:48)

neyr200
timosha-sha
Есть значительное сходство с Special Pink Mood Deluxe vol.3
http://GOSTRACKER.XYZ/viewtopic.php?t=2223947
http://GOSTRACKER.XYZ/viewtopic.php?t=2598463
Из других японских певиц жанрово близкой считается Meiko Kaji

xander3

Стаж: 8 лет 11 месяцев

Сообщений: 95

flag

xander3 · 28-Май-13 13:27 (спустя 2 года 3 месяца, ред. 24-Янв-15 10:19)

Спасибо за альбом!
Да вот только и у вас, и везде-везде в WWW (ну как будто все сговорились) - ошибка в названии 2-го трека.
А надо бы "Yokohama Tasogare".
かわいい子には旅をさせよ。

fhdsgj

Стаж: 8 лет 9 месяцев

Сообщений: 102

flag

fhdsgj · 10-Окт-13 17:51 (спустя 4 месяца 13 дней)

Reiko Ike - Sasurai No Guita мелодия вальса На сопках Маньчжурии, её ещё исполняли The Ventures – Manchurian Beat.
Когда ты убиваешь убийцу, количество убийц в мире не меняется.

DiePain

Стаж: 9 лет 3 месяца

Сообщений: 724

flag

DiePain · 12-Дек-13 19:30 (спустя 2 месяца 2 дня)

Друзья, исправьте, пожалуйста, названия альбома. Оно читает как "Koukotsu no sekai".
~恋は戦争~

Delаy

Стаж: 4 года 10 месяцев

Сообщений: 105

flag

Delаy · 12-Авг-14 18:21 (спустя 7 месяцев)

Был записан нормальный такой иззи-листенинг, но эта Ики Рейка на каждый трек понатыкала свои стоны - превратив легким движением нормальную музыку в дерьмо. Дура в общем она.

mithridat

Top Seed 01* 40r

Стаж: 11 лет 6 месяцев

Сообщений: 597

mithridat · 18-Апр-17 12:07 (спустя 2 года 8 месяцев, ред. 18-Апр-17 12:07)

Спасибо за замечания,внес исправление в описание.
Выложил сборник Yakeppachi Rock (2006),куда вошли еще 2 песни в исполнении Reiko Ike,а также песни других японских актрис 70-ых.

mithridat

Top Seed 01* 40r

Стаж: 11 лет 6 месяцев

Сообщений: 597

mithridat · 21-Май-17 19:49 (спустя 1 месяц 3 дня)

Раздача обновлена.Добавлены сканы обложек в разрешении 300 DPI.
Просьба всем участникам заново загрузить торрент-файл.
DiePain
Цитата:
Друзья, исправьте, пожалуйста, названия альбома. Оно читает как "Koukotsu no sekai".
Согласно гуглу все таки правильнее читать Kokotsu no sekai.Возвращаю первоначальный вариант транскрипции названия.
 
All rights reserved © 2017-2018
Loading...
Error