(Audiophile Voice) Orawee Sajjanont - The Best Of Orawee [RareCD] - 2002, FLAC (image+.cue), lossless

Статистика раздачи
Размер:  323.1 MB   |   Зарегистрирован:  8 лет 6 месяцев   |   .torrent скачан:  866 раз
Сиды:  1   Личи:  1
Автор
Сообщение

yo0507

Стаж: 8 лет 11 месяцев

Сообщений: 187

flag

yo0507 · 12-Июн-10 15:54 (8 лет 6 месяцев назад)

 

Orawee Sajjanont - The Best Of Orawee [RareCD] ( GMM Not For Sale )
Жанр: Audiophile Voice
Год выпуска диска: 2002
Производитель диска: Thailand ( MGA:: SP-CD A1 )
Аудио кодек: FLAC
Тип рипа: image+.cue
Битрейт аудио: lossless
Продолжительность: 56:41
Трэклист:
01. คิดถึงบ้าน [04:31]
02. ใครว่าแล้งในอก [03:43]
03. มนต์รักสลาย [02:52]
04. ยิ่งบ่อยยิ่งดี [03:23]
05. ขาจากไปเหมือนสายน้ำ [03:20]
06. คืนรัง [04:15]
07. มือเรียวเกี่ยวรวง [04:02]
08. รักต้องห้าม [03:44]
09. พะวงรัก [04:01]
10. สนามอารมณ์ [03:22]
11. พิษรัก [03:50]
12. หลักไม้เลื้อย [04:01]
13. คืนทรมาน [03:54]
14. หนีรัก [03:48]
15. ที่รักเรารักกันไม่ได้ [03:54]

Original Rip By : LoveR2D4
More Info @ http://www.orrawee.com
Other Album @ GOSTRACKER Orawee - Colour of flower changed
лог-файл
Exact Audio Copy V0.99 prebeta 5 from 4. May 2009
EAC extraction logfile from 22. May 2010, 22:13
Orawee Sajjanont / The Best of Orawee
Used drive : PIONEER DVD-RW DVR-217L Adapter: 5 ID: 0
Read mode : Secure
Utilize accurate stream : Yes
Defeat audio cache : Yes
Make use of C2 pointers : No
Read offset correction : 96
Overread into Lead-In and Lead-Out : Yes
Fill up missing offset samples with silence : Yes
Delete leading and trailing silent blocks : No
Null samples used in CRC calculations : Yes
Used interface : Native Win32 interface for Win NT & 2000
Used output format : User Defined Encoder
Selected bitrate : 768 kBit/s
Quality : High
Add ID3 tag : No
Command line compressor : C:\Program Files\Exact Audio Copy\Flac\flac.exe
Additional command line options : --best -T "ARTIST=%a" -T "TITLE=%t" -T "ALBUM=%g" -T "DATE=%y" -T "TRACKNUMBER=%n" -T "GENRE=%m" %s
TOC of the extracted CD
Track | Start | Length | Start sector | End sector
---------------------------------------------------------
1 | 0:00.00 | 4:31.30 | 0 | 20354
2 | 4:31.30 | 3:43.20 | 20355 | 37099
3 | 8:14.50 | 2:52.05 | 37100 | 50004
4 | 11:06.55 | 3:23.15 | 50005 | 65244
5 | 14:29.70 | 3:20.20 | 65245 | 80264
6 | 17:50.15 | 4:14.70 | 80265 | 99384
7 | 22:05.10 | 4:01.65 | 99385 | 117524
8 | 26:07.00 | 3:43.65 | 117525 | 134314
9 | 29:50.65 | 4:00.65 | 134315 | 152379
10 | 33:51.55 | 3:21.65 | 152380 | 167519
11 | 37:13.45 | 3:49.60 | 167520 | 184754
12 | 41:03.30 | 4:00.65 | 184755 | 202819
13 | 45:04.20 | 3:53.60 | 202820 | 220354
14 | 48:58.05 | 3:48.20 | 220355 | 237474
15 | 52:46.25 | 3:54.20 | 237475 | 255044
Range status and errors
Selected range
Filename F:\Music\Thai - All Thai albums\The Best Of Orawee\Orawee Sajjanont - The Best of Orawee.wav
Peak level 99.8 %
Range quality 100.0 %
Copy CRC 8BE8F923
Copy OK
No errors occurred
End of status report
Кий лист
REM GENRE Folk
REM DATE 2002
REM DISCID D90D480F
REM COMMENT "ExactAudioCopy v0.99pb5"
PERFORMER "Orawee Sajjanont"
TITLE "The Best of Orawee"
FILE "Orawee Sajjanont - The Best of Orawee.flac" WAVE
TRACK 01 AUDIO
TITLE "คิดถึงบ้าน"
PERFORMER "Orawee Sajjanont"
ISRC 000000000000
FLAGS DCP
INDEX 01 00:00:00
TRACK 02 AUDIO
TITLE "ใครว่าแล้งในอก"
PERFORMER "Orawee Sajjanont"
ISRC 000000000000
FLAGS DCP
INDEX 00 04:31:28
INDEX 01 04:31:30
TRACK 03 AUDIO
TITLE "มนต์รักสลาย"
PERFORMER "Orawee Sajjanont"
ISRC 000000000000
FLAGS DCP
INDEX 00 08:14:45
INDEX 01 08:14:50
TRACK 04 AUDIO
TITLE "ยิ่งบ่อยยิ่งดี"
PERFORMER "Orawee Sajjanont"
ISRC 000000000000
FLAGS DCP
INDEX 00 11:06:47
INDEX 01 11:06:55
TRACK 05 AUDIO
TITLE "เขาจากไปเหมือนสายน้ำ"
PERFORMER "Orawee Sajjanont"
ISRC 000000000000
FLAGS DCP
INDEX 00 14:29:69
INDEX 01 14:29:70
TRACK 06 AUDIO
TITLE "คืนรัง"
PERFORMER "Orawee Sajjanont"
ISRC 000000000000
FLAGS DCP
INDEX 00 17:50:13
INDEX 01 17:50:15
TRACK 07 AUDIO
TITLE "มือเรียวเกี่ยวรวง"
PERFORMER "Orawee Sajjanont"
ISRC 000000000000
FLAGS DCP
INDEX 01 22:05:10
TRACK 08 AUDIO
TITLE "รักต้องห้าม"
PERFORMER "Orawee Sajjanont"
ISRC 000000000000
FLAGS DCP
INDEX 01 26:07:00
TRACK 09 AUDIO
TITLE "พะวงรัก"
PERFORMER "Orawee Sajjanont"
ISRC 000000000000
FLAGS DCP
INDEX 01 29:50:65
TRACK 10 AUDIO
TITLE "สบายอารมณ์"
PERFORMER "Orawee Sajjanont"
ISRC 000000000000
FLAGS DCP
INDEX 01 33:51:55
TRACK 11 AUDIO
TITLE "พิษรัก"
PERFORMER "Orawee Sajjanont"
ISRC 000000000000
FLAGS DCP
INDEX 01 37:13:45
TRACK 12 AUDIO
TITLE "หลักไม้เลื้อย"
PERFORMER "Orawee Sajjanont"
ISRC 000000000000
FLAGS DCP
INDEX 01 41:03:30
TRACK 13 AUDIO
TITLE "คืนทรมาน"
PERFORMER "Orawee Sajjanont"
ISRC 000000000000
FLAGS DCP
INDEX 01 45:04:20
TRACK 14 AUDIO
TITLE "หนีรัก"
PERFORMER "Orawee Sajjanont"
ISRC 000000000000
FLAGS DCP
INDEX 01 48:58:05
TRACK 15 AUDIO
TITLE "ที่รักเรารักกันไม่ได้"
PERFORMER "Orawee Sajjanont"
ISRC 000000000000
FLAGS DCP
INDEX 01 52:46:25
Подробная информация по тайскому
อรวี สัจจานนท ลูกสาวคนจีน พ่อแม่ยึดอาชีพค้าขาย อรวี สัจจานนท์ ชื่นชอบการร้องเพลง แต่พ่อไม่สนับสนุน ความฝันของเธอไม่ลดละ
ในงานพระสมุทรเจดีย์ อรวีนำเพลงของ ผ่องศรี วรนุช คือเพลง กินข้าวกับน้ำพริก, อ้อนจันทร์ และสาลิกาคืนถิ่น
ขึ้นร้องโชว์บนเวที ก่อนที่จะเข้าสู่วงการประกวดร้องเพลง ขณะที่เรียนอยู่มัธยมศึกษาปีที่ 1 อรวีลงประกวดร้องเพลงที่พระประแดง
เพลงตระเวนชายแดน ของจินตนา สุขสถิต ทำให้เธอได้รับรางวัลรองชนะเลิศ
อรวี สัจจานนท์ ย้ายมาเรียนอยู่โรงเรียนหอวัง มีโอกาสไปประกวดร้องเพลงที่สวนสนุกแฮปปี้แลนด์ ที่จัดร่วมกับเสียงสามยอด
ทั้งที่ลงประกวดรุ่นเด็ก แต่คณะกรรมการต้องการให้อรวี สัจจานนท์ ประกวดรุ่นผู้ใหญ่เธอร้องเพลงไฟรัก ได้รับรางวัลนักร้องยอดเยี่ยม
ในปี พ.ศ. 2523 อรวีคว้ารางวัลโดมทองคำ ในปี 2523 และได้รับรางวัลนักร้องยอดเยี่ยมมิตซูบิชิ ในปี 2524
ด้วยบทเพลงลาก่อนความรัก ของแจ้-ดนุพล แก้วกาญจน์
ปี พ.ศ. 2526 อรวี สัจจานนท์ ลงประกวดเวทีสยามกลการ ก่อนได้รับรางวัลนักร้องดีเด่นสยามกลการ
(Thailand singing contest) ด้วยบทเพลงเงาไม้ ปีนั้น เต๋อ-เรวัติ พุทธินันทน์ เป็นพิธีกรดำเนินรายการ
ซึ่งเป็นการจัดปีแรกของสยามกลการ เมื่อก่อนการประกวดไม่ได้จำกัดอายุผู้เข้าประกวดร้องเพลง ส่วนใหญ่จะเป็นนักร้องอาชีพ
อรวี สัจจานนท์ ขณะนั้นเรียนอยู่ ม.ศ.5 ต้องใส่ชุดนักเรียนไปซ้อมร้องเพลง เป็นภาพที่ดูไร้เดียงสา
อาจารย์ทรงวุฒิ จรูญเรืองฤทธิ์ นักเปียโนของสยามกลการ เป็นผู้ผลักดันให้อรวี สัจจานนท์
ไปยังบริษัท คีตา เอนเตอร์เทนเม้นท์ ที่กำลังหานักร้องทำเพลงไทยลูกกรุง อรวี สัจจานนท์
ได้ออกอัลบั้มเดี่ยวคัฟเวอร์เพลงอมตะ อาทิเพลง กว่าจะรักกันได้, ยังจำได้ไหม และจูบในใจ
ก่อนที่จะได้ร้องคู่กับวิระ บำรุงศรี ในนามศิลปินเยื่อไม้ มีโอกาสตระเวนแสดงคอนเสิร์ตไปทั่วประเทศ
ปี 2533 อรวี สัจจานนท์ ได้รู้จักกับ อ๊อด-กิตติศักดิ์ ช่วงอรุณ ผู้บริหารของแกรมมี่
รองกรรมการผู้อำนวยการอาวุโสสายงานธุรกิจเพลง และอากู๋-ไพบูลย์ ดำรงชัยธรรม
ได้ชักชวนให้ร่วมงานกับบริษัทแกรมมี่ จากนั้นอัลบั้มเพลงทยอยออกมา ได้แก่ ปี พ.ศ.2534 อัลบั้ม
อรวีกับความรัก สายน้ำ เสียงสะอื้น โปรดิวเซอร์คือ ยงยุทธ มีแสง เพลงคัฟเวอร์
อาทิ ช่างร้ายเหลือ, สาวสะอื้น และถึงร้ายก็รัก
ปี พ.ศ.2535 อัลบั้มทะเลอารมณ์ รวมบทเพลงทะเล อาทิ หัวหิน และสงขลา
โปรดิวเซอร์ยังคงเป็น ยงยุทธ มีแสง ปี พ.ศ.2538 อัลบั้มดอกไม้เปลี่ยนสี
มีการเปลี่ยนแนวนำบทเพลงเพื่อชีวิต เดือนเพ็ญ, ความรัก, กำลังใจ และคิดถึงบ้าน
มาคัฟเวอร์ในแบบฉบับอรวี สัจจานนท์ โปรดิวเซอร์ ได้อาจารย์ธนิตร์ ศรีกลิ่นดี
จากนั้นปี พ.ศ.2539 อัลบั้มเพชรน้ำหนึ่ง ชุดที่ 1-6, ปี พ.ศ. 2545 อัลบั้มชื่นใจ,
ปี พ.ศ.2545 อัลบั้มวรรณกรรมน้ำเอก 1-3, ปี พ.ศ.2545 อัลบั้มสุนทราภรณ์ปีใหม่,
ปี พ.ศ.2547 อัลบั้ม The Family, ปี พ.ศ.2540 อัลบั้ม ค่าควรเมือง ชุดที่ 1-3,
ปี พ.ศ.2547 อัลบั้มคู่เคียงสำเนียงรัก 1-3
อรวี สัจจานนท์ ได้รับรางวัลพระพิฆเนศทองพระราชทาน
เพลงสายน้ำไม่ไหลกลับ ในปี พ.ศ.2540, รางวัลพระพิฆเนศทองพระราชทาน เพลงแม่สาย ในปี พ.ศ.2541
รางวัลนักร้องหญิง มาลัยทอง ประเภทเพลงเก่าทำใหม่ยอดเยี่ยม
เพลงสาละวันสงสารใจ ในปี พ.ศ.2548 ปัจจุบัน อรวี สัจจานนท์ รับโชว์ตัวร้องเพลงทั่วประเทศ
แต่ไม่รับร้องประจำ
YouTube
Track 01 คิดถึงบ้าน (Missing Home) = http://www.youtube.com/watch?v=UZUXx0BQ6uY
Track 10 สนามอารมณ์ = http://www.youtube.com/watch?v=WQbUEYaNUik
Track 11 พิษรัก (Posion Of Love) = http://www.youtube.com/watch?v=LkdGSgsLsp4
Track 15 ที่รักเรารักกันไม่ได้ (Babe, We Can't Love Each Other) = http://www.youtube.com/watch?v=bUMj-XSZHN0
Зарегистрирован:
  • 12-Июн-10 15:54
  • Скачан: 866 раз

Скачать .torrent

13 KB

Тип: обычная
Статус: проверено
Размер: 323.1 MB  ·  magnetD0D20F6503962DAF00F6524FB6149605DAEC27FE
  • Свернуть поддиректории
  • Развернуть
  • Переключить
  • Увел./умен. окно
загружается...
почувствовать избили !!!
 
All rights reserved © 2017-2018
Loading...
Error