Айка / Агент Айка / Aika / Agent Aika [OVA] [7 из 7] [JAP, RUS(int), SUB] [Special] [1 из 1] [JAP + SUB][Без хардсаба] [1997-1998, комедия, фантастика, приключения, этти, DVDRip] HWP

Статистика раздачи
Размер:  2.57 GB   |   Зарегистрирован:  8 лет 1 месяц   |   .torrent скачан:  1,229 раз
Сиды:  2
Автор
Сообщение

Zombieanne

Top Seed 01* 40r

Стаж: 8 лет 2 месяца

Сообщений: 431

Zombieanne · 06-Окт-10 16:57 (8 лет 1 месяц назад, ред. 07-Дек-11 13:03)

 

Айка / Агент Айка Aika / Agent Aika
Страна: Япония
Год выпуска: 1997 г.
Жанр: комедия, фантастика, приключения, этти
Тип: OAV
Продолжительность: 7 эп. (от 25 до 29 мин. серия) + 1 Special (11 мин.)
Режиссер: Нисидзима Кацухико
Студия: Studio Fantasia
Перевод:(Эпизоды 1-7)
  1. Русская озвучка. [Suzaku](Мужская одноголоска)
  2. Русские субтитры. Станислав Фролов [ЧК - Челябинский Клуб Аниме]
(Special)
  1. Русские субтитры. Гаврилыч [danilych@lipetsk.ru]

Описание: Будущее… Мировая катастрофа - землетрясение в Токио привело к тому, что большая часть суши оказалось под водой… Очень прибыльной стала работа спасателей-подводников. Огромные корпорации и мелкие предприятия нанимают спасателей, чтобы поднимать со дна разросшегося океана артефакты и все то, что стоит немалые деньги и что не удалось спасти во время глобального потопа. Агент Айка работает как раз таким спасателем. Айка берется за опасное задание - раскрыть таинственный "Лагу", причину чудовищной катастрофы и возможное спасение мира. Но далеко не она одна преследует эту цель…

Качество: DVDRip; Формат видео: AVI; Тип видео: без хардсаба
Видео: DiVX (2-pass encoding), 640x480, ~1400kbps, cfr 23.976
(Эпизоды 1-7)
Аудио#1: JAP, MP3, cbr 192kbps, 48.0 KHz, 2 channels
Аудио #2: RUS, MP3, cbr 192kbps, 48.0 KHz, 2 channels
(Special)
Аудио #1: JAP, AC3, cbr 192 kbps, 48.0 KHz, 2 channels
Субтитры: .srt, внешние; Язык: русский; Перевод: (1-7 эпизод) Станислав Фролов [ЧК - Челябинский Клуб Аниме]; (Special) Гаврилыч.
Подробные тех. данные
General
Complete name : H:\!Release\Agent Aika (1997) HWP\Испытание 1 - Прекрасный агент.avi
Format : AVI
Format/Info : Audio Video Interleave
File size : 374 MiB
Duration : 29mn 9s
Overall bit rate : 1 793 Kbps
Writing application : VirtualDubMod 1.5.10.2 (build 2542/release)
Writing library : VirtualDubMod build 2542/release
Video
ID : 0
Format : MPEG-4 Visual
Format profile : Advanced Simple@L5
Format settings, BVOP : Yes
Format settings, QPel : No
Format settings, GMC : No warppoints
Format settings, Matrix : Default (MPEG)
Codec ID : DIVX
Codec ID/Info : Project Mayo
Codec ID/Hint : DivX 4
Duration : 29mn 9s
Bit rate : 1 395 Kbps
Width : 640 pixels
Height : 480 pixels
Display aspect ratio : 4:3
Frame rate : 23.976 fps
Resolution : 8 bits
Colorimetry : 4:2:0
Scan type : Progressive
Bits/(Pixel*Frame) : 0.189
Stream size : 291 MiB (78%)
Writing library : XviD 1.2.1 (UTC 2008-12-04)
Audio #1
ID : 1
Format : MPEG Audio
Format version : Version 1
Format profile : Layer 3
Codec ID : 55
Codec ID/Hint : MP3
Duration : 29mn 9s
Bit rate mode : Constant
Bit rate : 192 Kbps
Channel(s) : 2 channels
Sampling rate : 48.0 KHz
Video delay : 24ms
Stream size : 40.0 MiB (11%)
Alignment : Aligned on interleaves
Interleave, duration : 42 ms (1.00 video frame)
Interleave, preload duration : 504 ms
Writing library : LAME3.92
Audio #2
ID : 2
Format : MPEG Audio
Format version : Version 1
Format profile : Layer 3
Codec ID : 55
Codec ID/Hint : MP3
Duration : 29mn 8s
Bit rate mode : Constant
Bit rate : 192 Kbps
Channel(s) : 2 channels
Sampling rate : 48.0 KHz
Video delay : 24ms
Stream size : 40.0 MiB (11%)
Alignment : Aligned on interleaves
Interleave, duration : 42 ms (1.00 video frame)
Interleave, preload duration : 504 ms
Writing library : LAME3.92
Список эпизодов
01. Испытание 1: Прекрасный агент.
02. Испытание 2: Голая миссия.
03. Испытание 3: Взлет.
04. Испытание 4: Цветущий в космосе.
05. Испытание 5: Золотая операция Делмо.
06. Испытание 6: Серебряная операция Делмо.
07. Испытание 7: Решающая битва! База Делмо!
08. Особое испытание Айки (DVD Special)
Сэмпл
Весьма показательный сэмпл (много резких движений) можно скачать здесь - http://onemove.ru/23985/. Весит 25 мегабайт.
Отличия
Отличие от этой: http://GOSTRACKER.XYZ/viewtopic.php?t=2738358
  1. Наличие всех 7 серий + 1 Special (там только первая серия, хотя раздаче уже 7 месяцев).
Отличие от этой: http://GOSTRACKER.XYZ/viewtopic.php?t=2533099
  1. Совместимость с бытовыми DVD-плейерами.
  2. Наличие Special-эпизода.
Отличия от этой: http://GOSTRACKER.XYZ/viewtopic.php?t=1988444
  1. Отсутствие полухардсаба.
  2. Наличие Special-эпизода.
  3. Лучше качество видео (там VHSRip, тут DVDRip).
Сравнительные скриншоты
Та раздача:

Моя раздача:
Скриншоты
Раздача предназначена для просмотра на бытовых DVD-плейерах.
Порядок просмотра:1. Айка - OAV (7 эп. + спэшл), оригинальный сериал, 1997-19982. Айка R-16 - OAV (3 эп.), предыстория, 20073. Айка Зеро - OAV (3 эп.), продолжение, 2009(Ссылки ведут на HWP раздачи)
Зарегистрирован:
  • 07-Окт-10 17:59
  • Скачан: 1,229 раз

Скачать .torrent

15 KB

Тип: обычная
Статус: проверено
Размер: 2.57 GB  ·  magnet54124BD0D3621820D6DB93A1272DAB2B35E9FA4D
  • Свернуть поддиректории
  • Развернуть
  • Переключить
  • Увел./умен. окно
загружается...
トコシエコウは咲く場所を選びません。

Zombieanne

Top Seed 01* 40r

Стаж: 8 лет 2 месяца

Сообщений: 431

Zombieanne · 07-Окт-10 18:08 (спустя 1 день 1 час, ред. 07-Окт-10 18:08)

Торрент-файл обновлён!Добавлен Special-эпизод Особое испытание Айки.Пожалуйста, перекачайте торрент!
トコシエコウは咲く場所を選びません。

caveeagle

Стаж: 10 лет 1 месяц

Сообщений: 221

flag

caveeagle · 07-Окт-10 20:38 (спустя 2 часа 30 мин.)

А где раздача? Пишет, что нет источника.

Misslusa

Стаж: 7 лет 8 месяцев

Сообщений: 141

flag

Misslusa · 03-Окт-13 13:50 (спустя 2 года 11 месяцев)

Спасибо! Великолепное аниме. Сделано красиво, весело, с юмором и интересно по содержанию.
 
All rights reserved © 2017-2018
Loading...
Error